(Opera) Smetana - The Secret (Koci, Kalas, Stepanova, Petrova, Zidek - Prague National Theatre Chorus & Orchestra, Krombholc) MP3 (image+.cue) 320 kbps


Статистика раздачи [Обновить пиров]
Размер:  240 MB   |    Зарегистрирован:  8 месяцев 17 дней   |    Скачан:  0 раз

Полного источника не было: Никогда

 
   
 
 
 

[Цитировать]

Bedřich Smetana - Tajemství (The Secret)
The opera was not as successful as Smetana had hoped; after its opening run, it was seen only a dozen more times during his lifetime and was unperformed for twenty years after that.
In 1922 it came back into the repertory of the Prague National Theatre.
Жанр: Opera
Издатель (лейбл): Naxos Classical Archives
Номер по каталогу: 9.80424-26 1954
Дата записи: 1954
Аудиокодек: MP3
Тип рипа: image+.cue
Битрейт аудио: 320 kbps
Продолжительность: 01'44'43
Источник: WEB
Наличие сканов в содержимом раздачи: да
Треклист:
1. Overture
2. Act I
3. Act II
4. Act III
Исполнители:
Bedřich Smetana - Tajemství (The Secret)
Comic opera in three acts
Premysl Koci
Karel Kalas
Stefa Petrova
Stepanka Stepanova
Ivo Zidek
Prague National Theatre Chorus & Orchestra
Jaroslav Krombholc
1954
Содержание индексной карты (.CUE)
REM GENRE Classical Music - Opera
PERFORMER "Prague National Theatre Orchestra"
TITLE "SMETANA, B.: Secret (The) [Opera] (Koci, Kalas, Stepanova, Krombholc) (1954)"
FILE "Smetana - The Secret [Koci, Kalas, Stepanova, Krombholc] (1954).mp3" WAVE
TRACK 01 AUDIO
TITLE "Overture"
PERFORMER "Prague National Theatre Chorus/Cadikovicova, Milada/Jedenactik, Vladimir/Kalas, Karel/Koci, Premysl/Kovar, Oldrich/Krikava, Josef/Petrova, Stefa/Rozanek, Josef/Stepanova, Stepanka/Vonasek, Rudolf/Zidek, Ivo"
INDEX 01 00:00:00
TRACK 02 AUDIO
TITLE "Act I"
PERFORMER "Prague National Theatre Chorus/Cadikovicova, Milada/Jedenactik, Vladimir/Kalas, Karel/Koci, Premysl/Kovar, Oldrich/Krikava, Josef/Petrova, Stefa/Rozanek, Josef/Stepanova, Stepanka/Vonasek, Rudolf/Zidek, Ivo"
INDEX 01 06:44:26
TRACK 03 AUDIO
TITLE "Act II"
PERFORMER "Prague National Theatre Chorus/Cadikovicova, Milada/Jedenactik, Vladimir/Kalas, Karel/Koci, Premysl/Kovar, Oldrich/Krikava, Josef/Petrova, Stefa/Rozanek, Josef/Stepanova, Stepanka/Vonasek, Rudolf/Zidek, Ivo"
INDEX 01 43:06:67
TRACK 04 AUDIO
TITLE "Act III"
PERFORMER "Prague National Theatre Chorus/Cadikovicova, Milada/Jedenactik, Vladimir/Kalas, Karel/Koci, Premysl/Kovar, Oldrich/Krikava, Josef/Petrova, Stefa/Rozanek, Josef/Stepanova, Stepanka/Vonasek, Rudolf/Zidek, Ivo"
INDEX 01 85:39:12Synopsis
Twenty years before, Councillor Kalina had asked for the hand of Róza Malinova who turned him down because of his lack of wealth.
Kalina then married a woman of similar status.
Róza never married and regrets having rejected Kalina.
Kalina has had a house built for himself across the town square from the Malinas’.
He is now widowed but puts on a show of wealth.
He is unaware that his son Vitek has fallen in love with the daughter of his rival councillor, the brother of Róza.
Kalina discovers by chance an ancient document and map which contain directions from an old friar Barnabáš, how he might find treasure hidden under Mount Bezděz.
As he is in debt, Kalina determines to take the prompts of the friar.
However, the tunnel he digs leads him to underneath a room in the Malinas’ house, where his son has been making his farewells to his forbidden love Blaženka.
It becomes clear that the aim of the old Barnabáš was to make Kalina discover his ‘treasure’: his old love Róza.
The opera ends happily, with a double wedding
[teatrix.ru].t21429.torrent 
Торрент: Зарегистрирован [ 2016-03-20 12:16 ] · 8F53C23D17CEB20236ACD02DED84D8E96D3A54D3

Скачать .torrent

Скачать

20 KB

Статус: проверено
Скачан: 0 раз
Размер: 240 MB
terms.php



Быстрый ответ

Имя:

      
Для отправки сообщений необходимо включить JavaScript
Показать сообщения:    

Текущее время: 06-Дек 22:47

Часовой пояс: UTC + 3


Вы можете начинать темы
Вы можете отвечать на сообщения
Вы не можете редактировать свои сообщения
Вы не можете удалять свои сообщения
Вы не можете голосовать в опросах
Вы не можете прикреплять файлы к сообщениям
Вы можете скачивать файлы