(Classical/Minimalism) Steve Reich - Music for 18 Musicians (Ensemble Signal, Brad Lubman) - 2015, FLAC (image+.cue) lossless


 

[Цитировать]

Steve Reich - Music for 18 Musicians
Жанр: Classical/Minimalism
Страна-производитель диска: Austria
Год издания диска: 2015
Издатель (лейбл): harmonia mundi usa
Номер по каталогу: HMU 907608
Дата записи: 9-12.III.2011
Аудиокодек: FLAC
Тип рипа: image+.cue
Битрейт аудио: lossless
Продолжительность: 59:16'
Источник: собственный рип
Наличие сканов в содержимом раздачи: да
Треклист:
01. Pulses
02. Section I
03. Section II
04. Section IIIA
05. Section IIIB
06. Section IV
07. Section V
08. Section VI
09. Section VII
10. Section VIII
11. Section IX
12. Section X
13. Section XI
14. Pulses
Исполнители:
Ensemble Signal
Brad Lubman
-

Лог создания рипа

Exact Audio Copy V1.0 beta 4 from 7. December 2014
EAC extraction logfile from 22. May 2015, 22:00
Steve Reich / Music for 18 Musicians
Used drive : TSSTcorpDVDWBD TS-LB23A Adapter: 1 ID: 0
Read mode : Secure
Utilize accurate stream : Yes
Defeat audio cache : Yes
Make use of C2 pointers : No
Read offset correction : 6
Overread into Lead-In and Lead-Out : No
Fill up missing offset samples with silence : Yes
Delete leading and trailing silent blocks : No
Null samples used in CRC calculations : Yes
Used interface : Native Win32 interface for Win NT & 2000
Used output format : User Defined Encoder
Selected bitrate : 128 kBit/s
Quality : High
Add ID3 tag : Yes
Command line compressor : C:\Program Files (x86)\Exact Audio Copy\Flac\flac.exe
Additional command line options : -T "COMMENT=Ripped by GFox" -V -8 %source%
TOC of the extracted CD
Track | Start | Length | Start sector | End sector
---------------------------------------------------------
1 | 0:00.00 | 5:22.58 | 0 | 24207
2 | 5:22.58 | 4:18.71 | 24208 | 43628
3 | 9:41.54 | 4:26.21 | 43629 | 63599
4 | 14:08.00 | 3:56.36 | 63600 | 81335
5 | 18:04.36 | 4:05.05 | 81336 | 99715
6 | 22:09.41 | 4:58.52 | 99716 | 122117
7 | 27:08.18 | 5:23.69 | 122118 | 146411
8 | 32:32.12 | 4:37.35 | 146412 | 167221
9 | 37:09.47 | 3:42.56 | 167222 | 183927
10 | 40:52.28 | 3:46.14 | 183928 | 200891
11 | 44:38.42 | 4:25.29 | 200892 | 220795
12 | 49:03.71 | 1:32.44 | 220796 | 227739
13 | 50:36.40 | 4:07.44 | 227740 | 246308
14 | 54:44.09 | 4:32.57 | 246309 | 266765
Range status and errors
Selected range
Filename D:\Downloads\Steve Reich - Music for 18 Musicians.wav
Peak level 95.5 %
Extraction speed 1.7 X
Range quality 100.0 %
Test CRC 2B7EA24A
Copy CRC 2B7EA24A
Copy OK
No errors occurred
AccurateRip summary
Track 1 not present in database
Track 2 not present in database
Track 3 not present in database
Track 4 not present in database
Track 5 not present in database
Track 6 not present in database
Track 7 not present in database
Track 8 not present in database
Track 9 not present in database
Track 10 not present in database
Track 11 not present in database
Track 12 not present in database
Track 13 not present in database
Track 14 not present in database
None of the tracks are present in the AccurateRip database
End of status report
==== Log checksum C68636E5DC2A96FB3F9EA78811AEC54BDAC444F0940E5E5B8E1FB72032AAD628 ====
-Доп. информация: Свежее прочтение нестареющей классики минимализма.-



Показать сообщения:    

Текущее время: 04-Дек 19:15

Часовой пояс: UTC + 3


Вы не можете начинать темы
Вы не можете отвечать на сообщения
Вы не можете редактировать свои сообщения
Вы не можете удалять свои сообщения
Вы не можете голосовать в опросах
Вы не можете прикреплять файлы к сообщениям
Вы не можете скачивать файлы