(Classical, Chamber) William Primrose - The Early Recordings (William Primrose, violin & viola) - 2004, FLAC (image+.cue), lossless


 

[Цитировать]

William Primrose - The Early Recordings
Жанр: Classical, Chamber
Страна-производитель диска: England
Год издания диска: 2004
Издатель (лейбл): Pavilion Records Ltd.
Номер по каталогу: GEM 0207
Дата записи: 1923-1935
Аудиокодек: FLAC
Тип рипа: image+.cue
Битрейт аудио: lossless
Продолжительность: 67.52
Источник: собственный рип
Наличие сканов в содержимом раздачи: да
Исполнители: William Primrose, violin (01-13), viola (14-18)
H. G. Templeman (01-04), G. O'Connor Morris (05), G. Moore (12), piano
I. Menges, violin, A. Gauntlett, viola da gamba, J. Ticehurst, harpsichord (13)
S. Goossens, harp (17, 18)

Треклист:

Bach: Sonata No. 2 BWV 1015
01. I. Andante
02. II. Allegro assai
03. III. Andante un poco
04. IV. Presto
05. Saint-Saens: Introduction & Rondo Capriccio Op. 28
06. Mendelssohn: Capriccietto from Op.12
07. Arensky: Serenade
08. Rise Mourners, Rise
09. Chopin: Nocturne in Eb Op. 9 No. 2
10. Bach: Gavotte from Partita BWV 1006
11. Drigo: Valse bluette
12. Kreisler: Minuetto
13. Purcell: The Golden Sonata (No. 14 in F, Z810)
14. Paganini: Caprice Op. 1 No. 13
15. Paganini: Caprice Op. 1 No. 5
16. Tchaikovsky: None but the weary heart, Op. 6 No. 6
17. Schubert: Ave Maria, Op. 52 No. 6
18. Londonderry Air
Total 67.52

Лог создания рипа:

Exact Audio Copy V1.0 beta 3 from 29. August 2011
Отчёт EAC об извлечении, выполненном 10. июня 2015, 21:09
William Primrose / William Primrose - The Early Recordings
Дисковод: Optiarc DVD RW AD-7260S Adapter: 0 ID: 1
Режим чтения : Достоверность
Использование точного потока : Да
Отключение кэша аудио : Да
Использование указателей C2 : Нет
Коррекция смещения при чтении : 48
Способность читать области Lead-in и Lead-out : Нет
Заполнение пропущенных сэмплов тишиной : Да
Удаление блоков с тишиной в начале и конце : Нет
При вычислениях CRC использовались нулевые сэмплы : Да
Интерфейс : Встроенный Win32-интерфейс для Win NT/2000
Выходной формат : Пользовательский кодировщик
Выбранный битрейт : 896 kBit/s
Качество : Высокий
Добавление ID3-тега : Нет
Утилита сжатия : C:\Program Files\FLAC Frontend\tools\flac.exe
Дополнительные параметры : -V -8 -T "Date=%year%" -T "Genre=%genre%" %source%
TOC извлечённого CD
Трек | Старт | Длительность | Начальный сектор | Конечный сектор
---------------------------------------------------------------------
1 | 0:00.00 | 4:02.14 | 0 | 18163
2 | 4:02.14 | 3:26.57 | 18164 | 33670
3 | 7:28.71 | 3:31.39 | 33671 | 49534
4 | 11:00.35 | 3:52.57 | 49535 | 66991
5 | 14:53.17 | 9:06.03 | 66992 | 107944
6 | 23:59.20 | 2:27.07 | 107945 | 118976
7 | 26:26.27 | 2:07.44 | 118977 | 128545
8 | 28:33.71 | 2:12.63 | 128546 | 138508
9 | 30:46.59 | 4:34.69 | 138509 | 159127
10 | 35:21.53 | 3:09.70 | 159128 | 173372
11 | 38:31.48 | 2:15.41 | 173373 | 183538
12 | 40:47.14 | 3:28.00 | 183539 | 199138
13 | 44:15.14 | 8:31.07 | 199139 | 237470
14 | 52:46.21 | 2:06.04 | 237471 | 246924
15 | 54:52.25 | 1:40.64 | 246925 | 254488
16 | 56:33.14 | 3:07.03 | 254489 | 268516
17 | 59:40.17 | 4:35.56 | 268517 | 289197
18 | 64:15.73 | 3:34.67 | 289198 | 305314
Характеристики диапазона извлечения и сообщения об ошибках
Выбранный диапазон
Имя файла D:\EAC\Мои раздачи\William Primrose - The Early Recordings\William Primrose - William Primrose - The Early Recordings.wav
Пиковый уровень 88.7 %
Скорость извлечения 4.0 X
Качество диапазона 100.0 %
CRC теста 0E078031
CRC копии 0E078031
Копирование... OK
Ошибок не произошло
AccurateRip: сводка
Трек 1 : извлечено точно (доверие 1) [46E1F52A] (AR v2)
Трек 2 : извлечено точно (доверие 1) [557302AD] (AR v2)
Трек 3 : извлечено точно (доверие 1) [535BB350] (AR v2)
Трек 4 : извлечено точно (доверие 1) [B51355EE] (AR v2)
Трек 5 : извлечено точно (доверие 1) [AF4FB93F] (AR v2)
Трек 6 : извлечено точно (доверие 1) [E3BD2C53] (AR v2)
Трек 7 : извлечено точно (доверие 1) [08816548] (AR v2)
Трек 8 : извлечено точно (доверие 1) [2BCBB4D7] (AR v2)
Трек 9 : извлечено точно (доверие 1) [4E029D28] (AR v2)
Трек 10 : извлечено точно (доверие 1) [7E06FCE9] (AR v2)
Трек 11 : извлечено точно (доверие 1) [F1751559] (AR v2)
Трек 12 : извлечено точно (доверие 1) [A8AEEF64] (AR v2)
Трек 13 : извлечено точно (доверие 1) [97D5C665] (AR v2)
Трек 14 : извлечено точно (доверие 1) [EFE1495E] (AR v2)
Трек 15 : извлечено точно (доверие 1) [25A91307] (AR v2)
Трек 16 : извлечено точно (доверие 1) [28CE2A97] (AR v2)
Трек 17 : извлечено точно (доверие 1) [3DF70EB9] (AR v2)
Трек 18 : извлечено точно (доверие 1) [C3DC7408] (AR v2)
Все треки извлечены точно
Конец отчёта
==== Контрольная сумма отчёта E055BABEA6252529140CA3603CEEA93378A12224596BE9A145A47E068812DDAB ====



Показать сообщения:    

Текущее время: 04-Дек 11:16

Часовой пояс: UTC + 3


Вы не можете начинать темы
Вы не можете отвечать на сообщения
Вы не можете редактировать свои сообщения
Вы не можете удалять свои сообщения
Вы не можете голосовать в опросах
Вы не можете прикреплять файлы к сообщениям
Вы не можете скачивать файлы