[TR24][OF] Wolfgang Amadeus Mozart - Symphonies Nos. 35-41 - Berliner Philharmoniker, Karl Böhm (Bohm) - 1995/2015 (Classical)

DL-List and Torrent activity [Update пиров]
Size:  2.84 GB   |    Registered:  7 months 2 days   |    Completed:  0 times

Seeder not seen: Never



Wolfgang Amadeus Mozart
Symphonies Nos. 35-41
Berliner Philharmoniker · Karl Böhm
-Год издания/переиздания: 1995/2015 | Жанр: Classical
Издатель: Deutsche Grammophon
Продолжительность: 02:27:01 | Сканы: Sleeve, Digital Booklet- -Контейнер: FLAC (*.flac) | Тип рипа: tracks
Разрядность: 24bit /96kHz | Количество каналов: 2.0-Berliner Philharmoniker · Karl Böhm, conductor
(#35, 38) October 1959, (#36, 39) February 1966
(#40) December 1961, (#41) March 1962
at Jesus-Christus-Kirche, Berlin, Germany

Wolfgang Amadeus Mozart (1756-1791)
Symphony No.35 In D, K.385 'Haffner'
01.1. Allegro con spirito (5:32)
02. 2. Andante (4:50)
03. 3. Menuetto (3:32)
04. 4. Finale (Presto) (4:02)
Symphony No.36 In C, K.425 'Linz'
05. 1. Adagio - Allegro spiritoso (7:59)
06. 2. Andante (7:16)
07. 3. Menuetto (3:32)
08. 4. Finale (Presto) (6:01)
Symphony No.38 In D, K.504 'Prague'
09. 1. Adagio - Allegro (10:23)
10. 2. Andante (8:34)
11. 3. Finale (Presto) (6:24)
Symphony No.39 In E Flat, K.543
12. 1. Adagio - Allegro (9:06)
13. 2. Andante con moto (7:39)
14. 3. Menuetto (Allegretto) (4:15)
15. 4. Finale (Allegro) (4:19)
Symphony No.40 In G Minor, K.550
16. 1. Molto allegro (8:27)
17. 2. Andante (8:05)
18. 3. Menuetto (Allegretto) - Trio (4:47)
19. 4. Finale (Allegro assai) (5:11)
Symphony No.41 In C, K.551 'Jupiter'
20. 1. Allegro vivace (7:39)
21. 2. Andante cantabile (7:39)
22. 3. Menuetto (Allegretto) (5:24)
23. 4. Molto allegro (6:27)

О релизе

These performances come from the first ever complete set of the Mozart symphonies, dating from the 1960s, and they still represent 'big orchestra' Mozart at its most congenial. The contrast here between Bohm's sparkling Mozart, both elegant and vigorous, and the much smoother view taken by Karajan with the same orchestra, works almost entirely in Bohm's favour. Interpretatively, these are performances very much of their time, with exposition repeats the exception (as in the first movement of No. 40) and with Minuets taken at what now seem lumbering speeds. Yet slow movements flow easily, and finales bounce along infectiously. Consistently they convey the happy ease of Bohm in Mozart, even if the recording is beefy by today's standards, not as transparent as one now expects in this repertory, whether on modern or period instruments.
There is some inconsistency between the different recordings, all made in the Jesus-Christus Kirche in Berlin between 1959 and 1966. The best sound comes from the sessions in 1966 for the Linz and No. 39 – satisfyingly full with no edginess on violins – and the least good from 1959 for the Prague, where high violins sound rather fizzy. Yet the very precision of the CD transfers encourages one to highlight such points. In practice most collectors will find the sound more than acceptable enough in all six symphonies to convey the warmth of Bohm in Mozart without distraction. Peter Cosse contributes an informative note on Bohm, rightly bringing out his ''natural, unforced approach to Mozart'', but much of the booklet is given over to advertising the other issues in The Originals series. After all, what harm is there in encouraging nostalgia by making the CDs look like vintage LPs and by reproducing the original sleeve designs? --Edward Greenfield, Gramophone
Karl Böhm's set of the last Mozart symphonies, recorded for Deutsche Grammophon between 1959 and 1966, rank among the greatest performances of these extraordinary works. The Berlin Philharmonic brings genuine warmth and vitality to the symphonies, yet maintains a poise throughout, which, in terms of balance and measured phrasing, is decidedly Classical. Böhm's rendition of the Symphony No. 35 "Haffner" is exciting in the outer movements, but steadily paced in the Andante and the stately Menuetto. The Symphony No. 36 "Linzer" is admirable for its clarity of form and sturdiness, though the performance is briskly paced to keep the music from seeming rigidly architectural. The Symphony No. 38 "Prager" glows with amorous feeling and humor, and Mozart's orchestral palette is at its most colorful in the Andante. After an intensely dramatic introduction, the Symphony No. 39 proceeds in a relaxed, gemütlich manner, and the slower tempi allow the winds to be fully resonant. In the Symphony No. 40, tenderness and pathos are emphasized over anxiety and drama, and Böhm's dynamics are carefully gauged to make this distinction clear. The Symphony No. 41 "Jupiter" is grand and energetic, and the Berlin Philharmonic's performance of the miraculous finale is this set's crowning achievement. --Blair Sanderson, AllMusic

ОтчётыДинамический диапазон

foobar2000 1.2.2 / Dynamic Range Meter 1.1.1
log date: 2015-06-11 19:29:02
Analyzed: Berliner Philharmoniker, Karl Böhm / Mozart: Symphonies Nos. 35 - 41
DR Peak RMS Duration Track
DR10 -3.00 dB -16.22 dB 5:32 ?-Symphony No.35 In D, K.385 'Haffner': 1. Allegro con spirito
DR12 -7.43 dB -25.73 dB 4:50 ?-Symphony No.35 In D, K.385 'Haffner': 2. Andante
DR12 -4.14 dB -21.69 dB 3:32 ?-Symphony No.35 In D, K.385 'Haffner': 3. Menuetto
DR11 -2.90 dB -18.18 dB 4:02 ?-Symphony No.35 In D, K.385 'Haffner': 4. Finale (Presto)
DR12 -0.99 dB -18.22 dB 7:59 ?-Symphony No.36 In C, K.425 'Linz': 1. Adagio - Allegro spiritoso
DR12 -3.45 dB -22.15 dB 7:16 ?-Symphony No.36 In C, K.425 'Linz': 2. Andante
DR13 -2.43 dB -21.37 dB 3:32 ?-Symphony No.36 In C, K.425 'Linz': 3. Menuetto
DR11 -1.60 dB -17.68 dB 6:01 ?-Symphony No.36 In C, K.425 'Linz': 4. Finale (Presto)
DR10 -6.02 dB -21.09 dB 10:23 ?-Symphony No.38 In D, K.504 'Prague': 1. Adagio - Allegro
DR13 -8.32 dB -26.19 dB 8:34 ?-Symphony No.38 In D, K.504 'Prague': 2. Andante
DR10 -5.65 dB -20.19 dB 6:24 ?-Symphony No.38 In D, K.504 'Prague': 3. Finale (Presto)
DR12 -1.65 dB -17.37 dB 9:06 ?-Symphony No.39 In E Flat, K.543: 1. Adagio - Allegro
DR12 -0.88 dB -20.52 dB 7:39 ?-Symphony No.39 In E Flat, K.543: 2. Andante con moto
DR12 -0.91 dB -17.84 dB 4:15 ?-Symphony No.39 In E Flat, K.543: 3. Menuetto (Allegretto)
DR11 -1.44 dB -16.66 dB 4:19 ?-Symphony No.39 In E Flat, K.543: 4. Finale (Allegro)
DR10 -2.45 dB -17.64 dB 8:27 ?-Symphony No.40 In G Minor, K.550: 1. Molto allegro
DR12 -3.73 dB -22.55 dB 8:05 ?-Symphony No.40 In G Minor, K.550: 2. Andante
DR11 -3.43 dB -18.51 dB 4:47 ?-Symphony No.40 In G Minor, K.550: 3. Menuetto (Allegretto) - Trio
DR10 -3.11 dB -17.93 dB 5:11 ?-Symphony No.40 In G Minor, K.550: 4. Finale (Allegro assai)
DR10 -1.90 dB -17.05 dB 7:39 ?-Symphony No.41 In C, K.551 'Jupiter': 1. Allegro vivace
DR13 -3.54 dB -22.52 dB 7:39 ?-Symphony No.41 In C, K.551 'Jupiter': 2. Andante cantabile
DR11 -2.60 dB -18.09 dB 5:24 ?-Symphony No.41 In C, K.551 'Jupiter': 3. Menuetto (Allegretto)
DR10 -1.63 dB -14.43 dB 6:27 ?-Symphony No.41 In C, K.551 'Jupiter': 4. Molto allegro
Number of tracks: 23
Official DR value: DR11
Samplerate: 96000 Hz
Channels: 2
Bits per sample: 24
Bitrate: 2855 kbps
Codec: FLAC

Скриншот спектра частот

Доп. информация

При скачивании, если необходимо, переименуйте папку, в которой будет находиться альбомБольшая просьба к скачавшим поддерживать раздачу! Помогайте другим, ведь вам тоже может понадобиться помощь!Не забываем говорить "Спасибо"!Комментарии приветствуются!
Torrent: Registered [ 2016-03-20 12:16 ] · 42314E8321C6255CE3F5720FC9DE2D9F8223BD50

Download .torrent


17 KB

Status: checked
Completed: 0 times
Size: 2.84 GB

Quick Reply


Heads necessary to send messages to enable JavaScript
Display posts:    

Current time is: 23-Oct 06:14

All times are UTC + 3

You can post new topics in this forum
You can reply to topics in this forum
You cannot edit your posts in this forum
You cannot delete your posts in this forum
You cannot vote in polls in this forum
You cannot attach files in this forum
You can download files in this forum