Меч-2. Пролог (Андрей Куренков) [2015, Документальный, кинематограф, DVB]


Статистика раздачи [Обновить пиров]
Размер:  794 MB   |    Зарегистрирован:  8 месяцев 18 дней   |    Скачан:  0 раз

Полного источника не было: Никогда

 
   
 
 
 

[Цитировать]

Меч-2. Пролог
Дата/Год выпуска: 2015
Страна: Россия
Жанр: Документальный, кинематограф
Продолжительность: 00:23:12
Перевод: Не требуется
Режиссер: Андрей Куренков
Телеканал: НТВ
Описание: Документальный фильм посвящен новому сезону популярного сериала "Меч". В криминальных сводках такие группы называют незаконными вооруженными формированиями. Сами же участники считают, что организация "Меч" создана для борьбы с преступниками, ушедшими от правосудия. Они ведут охоту на наркоторговцев, педофилов, насильников и других опасных представителей преступного мира и уверены в том, что в борьбе за справедливость все средства хороши. В новых сериях им не раз придется идти на компромисс с собственной совестью ради идеи справедливости. Через какие испытания уже пришлось пройти героям сериала, и какие изменения в их судьбах готовит новый сезон?
Сэмпл
качество: DVB
формат: mpg
Видео: MPEG2, 720х576 (4:3), 4497 Kbps, 25 fps, Bits/(Pixel*Frame) : 0.434
Аудио: MP2, 192 Kbps, 2 ch, 48 KHz

MediaInfo

D:\Ìå÷ 2. Ïðîëîã.mpg
General
Complete name : D:\Ìå÷ 2. Ïðîëîã.mpg
Format : MPEG-PS
File size : 794 MiB
Duration : 23mn 12s
Overall bit rate mode : Variable
Overall bit rate : 4 784 Kbps
Video #224
ID : 224 (0xE0)
Format : MPEG Video
Format version : Version 2
Format profile : Main@Main
Format settings, BVOP : Yes
Format settings, Matrix : Custom
Duration : 23mn 12s
Bit rate mode : Variable
Bit rate : 4 497 Kbps
Maximum bit rate : 15.0 Mbps
Width : 720 pixels
Height : 576 pixels
Display aspect ratio : 4:3
Frame rate : 25.000 fps
Standard : PAL
Color space : YUV
Chroma subsampling : 4:2:0
Bit depth : 8 bits
Scan type : Interlaced
Scan order : Top Field First
Compression mode : Lossy
Bits/(Pixel*Frame) : 0.434
Stream size : 747 MiB (94%)
Audio #192
ID : 192 (0xC0)
Format : MPEG Audio
Format version : Version 1
Format profile : Layer 2
Duration : 23mn 12s
Bit rate mode : Constant
Bit rate : 192 Kbps
Channel(s) : 2 channels
Sampling rate : 48.0 KHz
Compression mode : Lossy
Delay relative to video : 13ms
Stream size : 31.9 MiB (4%)

Скриншоты

[teatrix.ru].t21439.torrent 
Торрент: Зарегистрирован [ 2016-03-20 12:16 ] · DFBE06A95E720D08815F41EFE3A5A7B9EF2AE989

Скачать .torrent

Скачать

16 KB

Статус: проверено
Скачан: 0 раз
Размер: 794 MB
terms.php



Показать сообщения:    

Текущее время: 07-Дек 19:26

Часовой пояс: UTC + 3


Вы не можете начинать темы
Вы не можете отвечать на сообщения
Вы не можете редактировать свои сообщения
Вы не можете удалять свои сообщения
Вы не можете голосовать в опросах
Вы не можете прикреплять файлы к сообщениям
Вы можете скачивать файлы