Гаэтано Доницетти - Анна Болейн / Donizetti - Anna Bolena (Marta Torbidoni) Фабио Бьонди / Fabio Biondi (Cesare Scarton) [2013, Opera, HDRip-AVC] Sub [Русские] [English, French, German, Italiano, Japanese]


 

[Цитировать]

-Оперный театр Флавия Веспасиана в Риети (Reate Festival) представляет
ГАЭТАНО ДОНИЦЕТТИ
29 ноября (November 29,) 1797 — 8 апреля (April 8,) 1848
»«АННА БОЛЕЙН»«
Либретто Феличе Романи по одномённым литературным источникам
-- РЕЖИССЁР Чезаре СКАРТОН Cesare Scarton
Язык: Итальянский
Субтитры/Subtitles: РУССКИЕ,
English, French, German, Italian, Japanese
Продолжительность: 163 min.
АННА БОЛЕЙН Марта ТОРБИДОНИ Marta Torbidoni
ГЕНРИХ VIII Федерико БЕНЕТТИ Federico Benetti
ДЖЕЙН СЕЙМУР Лаура ПОЛВЕРЕЛЛИ Laura Polverelli
Лорд РОШФОР Дионисос ТСАНТИНИС Dionisos Tsantinis
Лорд ПЕРСИ Мойсес Марин ГАРСИА Moisés Marín García
СМЕТОН Мартина БЕЛЛИ Martina Belli
ХАРВИ Карло АЛЛЕМАНО Carlo Allemano
ОРКЕСТР "Галантная Европа" & ХОР "Бельканто"
ДИРИЖЁР Фабио БЬОНДИ Fabio Biondi
Качество видео: HDRip-AVC
♫ Sample ♫
Исходник: BDRip-AVC 1080 by Vilboa
Формат/Контейнер: MKV
Аудио кодек: DTS
Видео поток: H.264, 1280x720, 1675 kbps, 29,970 fps.
Аудио поток: Italian, 1509 kbps, 48,0 KHz, 24 bit, 6 ch
Навигация по главам: Есть

Скриншоты

MediaInfo

-

x264.log


avs [info]: 1280x720p 1:1 @ 30000/1001 fps (cfr)
x264 [info]: using SAR=1/1
x264 [info]: using cpu capabilities: MMX2 SSE2Fast LZCNT
x264 [info]: profile High, level 4.1
x264 [info]: frame I:1653 Avg QP:17.33 size: 80678
x264 [info]: frame P:107902 Avg QP:20.07 size: 13883
x264 [info]: frame B:184342 Avg QP:22.65 size: 2622
x264 [info]: consecutive B-frames: 9.4% 18.8% 6.3% 65.5%
x264 [info]: mb I I16..4: 16.5% 62.3% 21.2%
x264 [info]: mb P I16..4: 3.4% 4.1% 0.3% P16..4: 46.4% 8.7% 10.8% 0.3% 0.1% skip:26.0%
x264 [info]: mb B I16..4: 0.2% 0.2% 0.0% B16..8: 34.9% 1.8% 0.3% direct: 1.1% skip:61.5% L0:40.7% L1:55.7% BI: 3.6%
x264 [info]: 8x8 transform intra:53.9% inter:78.9%
x264 [info]: coded y,uvDC,uvAC intra: 30.1% 59.2% 18.8% inter: 10.1% 19.2% 0.4%
x264 [info]: i16 v,h,dc,p: 53% 26% 11% 10%
x264 [info]: i8 v,h,dc,ddl,ddr,vr,hd,vl,hu: 12% 8% 33% 7% 8% 9% 8% 8% 8%
x264 [info]: i4 v,h,dc,ddl,ddr,vr,hd,vl,hu: 18% 10% 4% 8% 12% 14% 11% 11% 11%
x264 [info]: i8c dc,h,v,p: 37% 33% 22% 9%
x264 [info]: Weighted P-Frames: Y:1.2% UV:0.5%
x264 [info]: ref P L0: 60.7% 9.0% 20.8% 9.4% 0.1%
x264 [info]: ref B L0: 84.1% 12.4% 3.5%
x264 [info]: ref B L1: 94.7% 5.3%
x264 [info]: kb/s:1725.21
-
General
Unique ID : 192864183965617702428929669035803648291 (0x91184A6BF71B782294E2C087A4B1A123)
Complete name : Anna Bolena (Reate Festival) 2013.mkv
Format : Matroska
Format version : Version 4 / Version 2
File size : 3.71 GiB
Duration : 2h 43mn
Overall bit rate : 3 249 Kbps
Encoded date : UTC 2015-06-10 08:40:01
Writing application : mkvmerge v7.8.0 ('River Man') 32bit built on Mar 27 2015 16:18:02
Writing library : libebml v1.3.1 + libmatroska v1.4.2
Video
ID : 1
Format : AVC
Format/Info : Advanced Video Codec
Format profile : High@L4.1
Format settings, CABAC : Yes
Format settings, ReFrames : 4 frames
Codec ID : V_MPEG4/ISO/AVC
Duration : 2h 43mn
Bit rate : 1 675 Kbps
Width : 1 280 pixels
Height : 720 pixels
Display aspect ratio : 16:9
Frame rate mode : Constant
Frame rate : 29.970 fps
Color space : YUV
Chroma subsampling : 4:2:0
Bit depth : 8 bits
Scan type : Progressive
Bits/(Pixel*Frame) : 0.061
Stream size : 1.91 GiB (52%)
Writing library : x264 core 146 r2538 121396c
Encoding settings : cabac=1 / ref=3 / deblock=1:0:0 / analyse=0x3:0x133 / me=umh / subme=9 / psy=1 / psy_rd=1.00:0.00 / mixed_ref=1 / me_range=16 / chroma_me=1 / trellis=1 / 8x8dct=1 / cqm=0 / deadzone=21,11 / fast_pskip=1 / chroma_qp_offset=-2 / threads=4 / lookahead_threads=1 / sliced_threads=0 / nr=0 / decimate=1 / interlaced=0 / bluray_compat=0 / constrained_intra=0 / bframes=3 / b_pyramid=2 / b_adapt=1 / b_bias=0 / direct=1 / weightb=1 / open_gop=0 / weightp=2 / keyint=300 / keyint_min=29 / scenecut=40 / intra_refresh=0 / rc_lookahead=40 / rc=crf / mbtree=1 / crf=21.0 / qcomp=0.60 / qpmin=10 / qpmax=51 / qpstep=4 / vbv_maxrate=62500 / vbv_bufsize=78125 / crf_max=0.0 / nal_hrd=none / filler=0 / ip_ratio=1.40 / aq=1:1.00
Language : English
Default : Yes
Forced : No
Audio
ID : 2
Format : DTS
Format/Info : Digital Theater Systems
Mode : 16
Format settings, Endianness : Big
Codec ID : A_DTS
Duration : 2h 43mn
Bit rate mode : Constant
Bit rate : 1 509 Kbps
Channel(s) : 6 channels
Channel positions : Front: L C R, Side: L R, LFE
Sampling rate : 48.0 KHz
Bit depth : 24 bits
Compression mode : Lossy
Stream size : 1.72 GiB (46%)
Language : Italian
Default : Yes
Forced : No
Text #1
ID : 3
Format : UTF-8
Codec ID : S_TEXT/UTF8
Codec ID/Info : UTF-8 Plain Text
Language : Russian
Default : Yes
Forced : No
Text #2
ID : 4
Format : VobSub
Muxing mode : zlib
Codec ID : S_VOBSUB
Codec ID/Info : The same subtitle format used on DVDs
Language : English
Default : No
Forced : No
Text #3
ID : 5
Format : VobSub
Muxing mode : zlib
Codec ID : S_VOBSUB
Codec ID/Info : The same subtitle format used on DVDs
Language : French
Default : No
Forced : No
Text #4
ID : 6
Format : VobSub
Muxing mode : zlib
Codec ID : S_VOBSUB
Codec ID/Info : The same subtitle format used on DVDs
Language : German
Default : No
Forced : No
Text #5
ID : 7
Format : VobSub
Muxing mode : zlib
Codec ID : S_VOBSUB
Codec ID/Info : The same subtitle format used on DVDs
Language : Italian
Default : No
Forced : No
Text #6
ID : 8
Format : VobSub
Muxing mode : zlib
Codec ID : S_VOBSUB
Codec ID/Info : The same subtitle format used on DVDs
Language : Japanese
Default : No
Forced : No
Menu
00:00:00.000 : it:Titoli
00:02:06.759 : it:Sinfonia
00:10:10.943 : it:Ne venne il Re?
00:16:00.559 : it:Deh! non voler costringere
00:21:13.038 : it:Non v'ha sguardo cui sia dato
00:30:15.780 : it:Tutta in voi la luce mia
00:40:37.134 : it:Chi veggo?
00:42:53.037 : it:Da quel di che, lei perduta
00:52:55.105 : it:Io sentii sulla mia mano
01:01:34.123 : it:E' sgombro il loco
01:08:53.195 : it:S'ei t'abborre, io t'amo ancora
01:16:50.772 : it:Tace ognuno
01:18:46.888 : it:Ah, mio signor!
01:22:14.529 : it:In separato carcere
01:26:52.006 : it:Oh! dove mai ne andarono
01:35:44.839 : it:Dio, che mi vedi in core
01:40:39.767 : it:Sul suo capo aggravi un Dio
01:43:16.156 : it:Ah! Perdono!
01:49:01.668 : it:Ebben? Dinanzi ai giudici
01:53:02.108 : it:Ella arrossir ne fe
01:56:27.547 : it:Ambo morrete, o perfidi
02:06:03.155 : it:Tu pur dannato a morte
02:08:03.308 : it:Vivi tu, te ne scongiuro
02:11:33.986 : it:Nel veder la tua constanza
02:16:12.430 : it:Chi puo' vederla a aciglio asciutto
02:21:49.868 : it:Piangete voi?
02:26:02.019 : it:Al dolce guidami
02:32:43.854 : it:Cielo, a' miel lunghi spasimi
02:36:27.344 : it:Coppia iniqua, l'estrema vendetta
02:42:06.016 : it:Una produzione
***
Dynamic, 2015



Показать сообщения:    

Текущее время: 03-Дек 03:22

Часовой пояс: UTC + 3


Вы не можете начинать темы
Вы не можете отвечать на сообщения
Вы не можете редактировать свои сообщения
Вы не можете удалять свои сообщения
Вы не можете голосовать в опросах
Вы не можете прикреплять файлы к сообщениям
Вы не можете скачивать файлы