(Orchestral) G.Mahler - Symphonie Nr.4 | Mozаrt - Symphonie Nr.40 | Brаhms - Symphonie Nr.4 | Strаuss - Don Juan (E.Schwаrzkopf • Amsterdam Concertgebouw Orchestra • Philharmonic-Symphony Orchestra • B.Walter) - 2001, FLAC (image+.cue) lossless


 

[Цитировать]

Bruno Walter
Mahler: Symphony No.4 in G
with E.Schwarzkopf, soprano

and works by Mozart, Brahms & Strauss--- Жанр: Orchestral
Страна-производитель диска: USA
Год издания диска: 2001
Издатель (лейбл): M&A
Дата записи: 1951/1952
Аудиокодек: FLAC
Тип рипа: image+.cue
Битрейт аудио: lossless
Продолжительность: 77'44'' | 57'24''
Источник: собственный рип
Наличие сканов в содержимом раздачи: да
Треклист:

CD1

[01] W.A.Mozart - Symphonie K550 g-moll: I. Molto Allegro
[02] II. Andante
[03] III. Menuetto: Allegretto
[04] IV. Allegro assai
[05] G.Mahler - Symphonie Nr.4: I. Bedächtig. Nicht eilen
[06] II. In gemächlicher Bewegung. Ohne Hast
[07] III. Ruhevoll
[08] IV. Sehr behaglich

Лог создания рипа

Exact Audio Copy V1.0 beta 4 from 7. December 2014
EAC extraction logfile from 21. February 2015, 12:32
Amsterdam Concertgebouw Orchestra - B.Walter / Bruno Walter - Mahler, Mozart, Brahms, Strauss (CD1)
Used drive : HL-DT-STDVD+-RW GU90N Adapter: 1 ID: 0
Read mode : Secure
Utilize accurate stream : Yes
Defeat audio cache : Yes
Make use of C2 pointers : No
Read offset correction : 102
Overread into Lead-In and Lead-Out : No
Fill up missing offset samples with silence : Yes
Delete leading and trailing silent blocks : No
Null samples used in CRC calculations : Yes
Used interface : Native Win32 interface for Win NT & 2000
Used output format : User Defined Encoder
Selected bitrate : 1024 kBit/s
Quality : High
Add ID3 tag : No
Command line compressor : C:\Program Files (x86)\FLAC\flac.exe
Additional command line options : -T "COMMENT=rip by el coronel" -8 -V %source%
TOC of the extracted CD
Track | Start | Length | Start sector | End sector
---------------------------------------------------------
1 | 0:00.00 | 6:22.12 | 0 | 28661
2 | 6:22.12 | 8:27.50 | 28662 | 66736
3 | 14:49.62 | 4:29.38 | 66737 | 86949
4 | 19:19.25 | 4:44.35 | 86950 | 108284
5 | 24:03.60 | 16:34.15 | 108285 | 182849
6 | 40:38.00 | 8:58.50 | 182850 | 223249
7 | 49:36.50 | 19:46.40 | 223250 | 312239
8 | 69:23.15 | 8:21.20 | 312240 | 349834
Range status and errors
Selected range
Filename F:\Music\Walter conducts Mozart, Mahler, Brahms and Strauss [M&A]\CD1.wav
Peak level 93.0 %
Extraction speed 5.0 X
Range quality 100.0 %
Test CRC 07AB1752
Copy CRC 07AB1752
Copy OK
No errors occurred
AccurateRip summary
Track 1 accurately ripped (confidence 1) [B0E59D84] (AR v1)
Track 2 accurately ripped (confidence 1) [A9EDDF78] (AR v1)
Track 3 accurately ripped (confidence 1) [3EA5ECD0] (AR v1)
Track 4 accurately ripped (confidence 1) [F0677592] (AR v1)
Track 5 accurately ripped (confidence 1) [E74844EB] (AR v1)
Track 6 accurately ripped (confidence 1) [BF5D4B49] (AR v1)
Track 7 accurately ripped (confidence 1) [BF1C0383] (AR v1)
Track 8 accurately ripped (confidence 1) [0A0A68D1] (AR v1)
All tracks accurately ripped
End of status report
---- CUETools DB Plugin V2.1.4
[CTDB TOCID: pydfffpAKtN6QYWpANKN4sgMw_Q-] found
Submit result: pydfffpAKtN6QYWpANKN4sgMw_Q- has been confirmed
Track | CTDB Status
1 | (1/1) Accurately ripped
2 | (1/1) Accurately ripped
3 | (1/1) Accurately ripped
4 | (1/1) Accurately ripped
5 | (1/1) Accurately ripped
6 | (1/1) Accurately ripped
7 | (1/1) Accurately ripped
8 | (1/1) Accurately ripped
==== Log checksum 5E6310952235CFFCD67ACBE4A2897BCA16DA37355C0D7B682605FEDBDC8DFBC4 ====

Содержание индексной карты (.CUE)

REM GENRE Classical
REM DATE 2001
REM DISCID 6E123808
REM COMMENT "ExactAudioCopy v1.0b4"
PERFORMER "Amsterdam Concertgebouw Orchestra - B.Walter"
TITLE "Bruno Walter - Mahler, Mozart, Brahms, Strauss (CD1)"
FILE "CD1.flac" WAVE
TRACK 01 AUDIO
TITLE "W.A.Mozart - Symphonie K550 g-moll: I. Molto Allegro"
PERFORMER "Amsterdam Concertgebouw Orchestra - B.Walter"
INDEX 01 00:00:00
TRACK 02 AUDIO
TITLE "II. Andante"
PERFORMER "Amsterdam Concertgebouw Orchestra - B.Walter"
INDEX 01 06:22:12
TRACK 03 AUDIO
TITLE "III. Menuetto: Allegretto"
PERFORMER "Amsterdam Concertgebouw Orchestra - B.Walter"
INDEX 01 14:49:62
TRACK 04 AUDIO
TITLE "IV. Allegro assai"
PERFORMER "Amsterdam Concertgebouw Orchestra - B.Walter"
INDEX 01 19:19:25
TRACK 05 AUDIO
TITLE "G.Mahler - Symphonie Nr.4: I. Bedachtig. Nicht eilen"
PERFORMER "E.Schwarzkopf; Amsterdam Concertgebouw Orchestra - B.Walter"
INDEX 00 23:58:27
INDEX 01 24:03:60
TRACK 06 AUDIO
TITLE "II. In gemachlicher Bewegung"
PERFORMER "E.Schwarzkopf; Amsterdam Concertgebouw Orchestra - B.Walter"
INDEX 01 40:38:00
TRACK 07 AUDIO
TITLE "III. Ruhevoll"
PERFORMER "E.Schwarzkopf; Amsterdam Concertgebouw Orchestra - B.Walter"
INDEX 01 49:36:50
TRACK 08 AUDIO
TITLE "IV. Sehr behaglich"
PERFORMER "E.Schwarzkopf; Amsterdam Concertgebouw Orchestra - B.Walter"
INDEX 01 69:23:15

CD2

[01] R.Strauss - Don Juan
[02] J.Brahms - Symphonie Nr.4*: I. Allegro non troppo
[03] II. Andante moderato
[04] III. Allegro giocoso
[05] IV. Allegro energico passionato

Лог создания рипа

Exact Audio Copy V1.0 beta 4 from 7. December 2014
EAC extraction logfile from 21. February 2015, 13:04
Bruno Walter / Bruno Walter - Mahler, Mozart, Brahms, Strauss (CD2)
Used drive : HL-DT-STDVD+-RW GU90N Adapter: 1 ID: 0
Read mode : Secure
Utilize accurate stream : Yes
Defeat audio cache : Yes
Make use of C2 pointers : No
Read offset correction : 102
Overread into Lead-In and Lead-Out : No
Fill up missing offset samples with silence : Yes
Delete leading and trailing silent blocks : No
Null samples used in CRC calculations : Yes
Used interface : Native Win32 interface for Win NT & 2000
Used output format : User Defined Encoder
Selected bitrate : 1024 kBit/s
Quality : High
Add ID3 tag : No
Command line compressor : C:\Program Files (x86)\FLAC\flac.exe
Additional command line options : -T "COMMENT=rip by el coronel" -8 -V %source%
TOC of the extracted CD
Track | Start | Length | Start sector | End sector
---------------------------------------------------------
1 | 0:00.00 | 16:47.00 | 0 | 75524
2 | 16:47.00 | 11:54.22 | 75525 | 129096
3 | 28:41.22 | 11:51.58 | 129097 | 182479
4 | 40:33.05 | 5:54.70 | 182480 | 209099
5 | 46:28.00 | 10:56.05 | 209100 | 258304
Range status and errors
Selected range
Filename F:\Music\Walter conducts Mozart, Mahler, Brahms and Strauss [M&A]\CD2.wav
Peak level 94.6 %
Extraction speed 4.3 X
Range quality 100.0 %
Test CRC 33AC286E
Copy CRC 33AC286E
Copy OK
No errors occurred
AccurateRip summary
Track 1 accurately ripped (confidence 1) [9A2062E6] (AR v1)
Track 2 accurately ripped (confidence 1) [97FF0199] (AR v1)
Track 3 accurately ripped (confidence 1) [C6CEEE5D] (AR v1)
Track 4 accurately ripped (confidence 1) [9192863A] (AR v1)
Track 5 accurately ripped (confidence 1) [9D6AE2B3] (AR v1)
All tracks accurately ripped
End of status report
---- CUETools DB Plugin V2.1.4
[CTDB TOCID: ThwQF1xM2qS7eyjTnTZw9X4Marg-] found
Submit result: ThwQF1xM2qS7eyjTnTZw9X4Marg- has been confirmed
Track | CTDB Status
1 | (1/1) Accurately ripped
2 | (1/1) Accurately ripped
3 | (1/1) Accurately ripped
4 | (1/1) Accurately ripped
5 | (1/1) Accurately ripped
==== Log checksum B57BAE97FAC36EE7BB0FE03686E58E992DEE99678563904C1D15E82612B8F721 ====

Содержание индексной карты (.CUE)

REM GENRE Classical
REM DATE 2001
REM DISCID 390D7405
REM COMMENT "ExactAudioCopy v1.0b4"
PERFORMER "Bruno Walter"
TITLE "Bruno Walter - Mahler, Mozart, Brahms, Strauss (CD2)"
FILE "CD2.flac" WAVE
TRACK 01 AUDIO
TITLE "R.Strauss - Don Juan"
PERFORMER "Amsterdam Concertgebouw Orchestra - B.Walter"
INDEX 01 00:00:00
TRACK 02 AUDIO
TITLE "J.Brahms - Symphonie Nr.4: I. Allegro non troppo"
PERFORMER "Philharmonic-Symphony Orchestra - Bruno Walter"
INDEX 00 16:41:67
INDEX 01 16:47:00
TRACK 03 AUDIO
TITLE "II. Andante moderato"
PERFORMER "Philharmonic-Symphony Orchestra - Bruno Walter"
INDEX 01 28:41:22
TRACK 04 AUDIO
TITLE "III. Allegro giocoso"
PERFORMER "Philharmonic-Symphony Orchestra - Bruno Walter"
INDEX 01 40:33:05
TRACK 05 AUDIO
TITLE "IV. Allegro energico passionato"
PERFORMER "Philharmonic-Symphony Orchestra - Bruno Walter"
INDEX 01 46:28:00
Исполнители:
Elisabeth Schwarzkopf, soprano
Amsterdam Concertgebouw Orchestra
Philharmonic-Symphony Orchestra*
Bruno Walter



Показать сообщения:    

Текущее время: 06-Дек 22:55

Часовой пояс: UTC + 3


Вы не можете начинать темы
Вы не можете отвечать на сообщения
Вы не можете редактировать свои сообщения
Вы не можете удалять свои сообщения
Вы не можете голосовать в опросах
Вы не можете прикреплять файлы к сообщениям
Вы не можете скачивать файлы