Кончита: без тормозов / Conchita: Unstoppable (Алехандра Веньер /Alexandra Venier) [2015, Документальный, биография, TVRip] Rus Sub


Статистика раздачи [Обновить пиров]
Размер:  724 MB   |    Зарегистрирован:  8 месяцев 19 дней   |    Скачан:  0 раз

Полного источника не было: Никогда

 
   
 
 
 

[Цитировать]

Кончита: без тормозов / Conchita: Unstoppable
Год выпуска: 2015
Страна: Австрия
Жанр: Документальный, биография
Продолжительность: 00:52:23
Перевод: Субтитры
Русские субтитры: есть
Формат субтитров: hardsub (неотключаемые)
Оригинальная аудиодорожка: английский
Режиссер: Алехандра Веньер /Alexandra Venier
Телеканал: Аруц 8 (Израиль)
Описание: Образ «женщины с бородой» был создан австрийским певцом Томом Нойвиртом в 2011 году. Идея о бородатой женщине-латиноамериканке пришла Нойвирту в связи с тем, что в подростковом возрасте он сталкивался с дискриминацией и травлей. Образ Кончиты Вурст стал высказыванием в защиту толерантности и принятия человека таким, какой он есть. Том Нойвирт заявил, что хочет, чтобы новое поколение считало, что быть самим собой хорошо, чтобы для людей было важно не то, как выглядит человек или откуда он родом, а то, что это за человек, чтобы люди научились разглядывать и ценить то, что скрыто «за фасадом». Кончита Вуртс выиграла в 2014 году конкурс "Евровидение" в Копенгагене и совершила свой прорыв в международный шоу-бизнес. Фильм рассказывает о том, как она и ее команда живут своей мечтой.
Доп. информация: Запись с канала "Аруц 8". Фильм на английском языке с двойными субтитрами (вшитыми) на русском языке и иврите. Перевод: Анна Теплицкая. Субтитры: Дори Медиа от ЛТД.
Сэмпл: https://yadi.sk/i/Z1yvM9GVhDddm
качество: TVRip
формат: AVI
Видео: 1795 Кbps, 704х432 (1.630), 25.000 fps, MPEG-4 Visual (XviD)(Advanced Simple@L5)(BVOP2)
Аудио: 128 Kbps,48.0 KHz, 2 сhannels, MPEG Audio (MP3) (Version 1)(Layer 3)(Joint stereo/MS Stereо)

MediaInfo

General
Complete name : D:\Conchita Unstoppable.avi
Format : AVI
Format/Info : Audio Video Interleave
File size : 724 MiB
Duration : 52mn 23s
Overall bit rate : 1 933 Kbps
Writing library : VirtualDub-MPEG2 build 24600/release
Video
ID : 0
Format : MPEG-4 Visual
Format profile : Advanced Simple@L5
Format settings, BVOP : 2
Format settings, QPel : No
Format settings, GMC : No warppoints
Format settings, Matrix : Default (MPEG)
Codec ID : XVID
Codec ID/Hint : XviD
Duration : 52mn 23s
Bit rate : 1 795 Kbps
Width : 704 pixels
Height : 432 pixels
Display aspect ratio : 1.630
Frame rate : 25.000 fps
Color space : YUV
Chroma subsampling : 4:2:0
Bit depth : 8 bits
Scan type : Progressive
Compression mode : Lossy
Bits/(Pixel*Frame) : 0.236
Stream size : 673 MiB (93%)
Writing library : XviD 58
Audio
ID : 1
Format : MPEG Audio
Format version : Version 1
Format profile : Layer 3
Mode : Joint stereo
Mode extension : MS Stereo
Codec ID : 55
Codec ID/Hint : MP3
Duration : 52mn 23s
Bit rate mode : Constant
Bit rate : 128 Kbps
Channel(s) : 2 channels
Sampling rate : 48.0 KHz
Compression mode : Lossy
Stream size : 48.0 MiB (7%)
Alignment : Split accross interleaves
Interleave, duration : 40 ms (1.00 video frame)
Interleave, preload duration : 500 ms

Скриншоты

[teatrix.ru].t21443.torrent 
Торрент: Зарегистрирован [ 2016-03-20 12:16 ] · 4B9277D52D1EF7E405B8761B6286EAA42028BDCF

Скачать .torrent

Скачать

1 KB

Статус: проверено
Скачан: 0 раз
Размер: 724 MB
terms.php



Быстрый ответ

Имя:

      
Для отправки сообщений необходимо включить JavaScript
Показать сообщения:    

Текущее время: 09-Дек 06:56

Часовой пояс: UTC + 3


Вы можете начинать темы
Вы можете отвечать на сообщения
Вы не можете редактировать свои сообщения
Вы не можете удалять свои сообщения
Вы не можете голосовать в опросах
Вы не можете прикреплять файлы к сообщениям
Вы можете скачивать файлы