(Symphony) Александр Мойзес - Симфонии Nos. 7 & 8 / Alexander Moyzes - Symphonies Nos. 7 & 8 (Slovak Radio Symphony Orchestra, Ladislav Slovak) - 2001, FLAC (image+.cue) lossless


 

[Цитировать]

Alexander Moyzes - Symphonies Nos. 7 & 8
Жанр: Symphony
Страна-производитель диска: E.C.
Год издания диска: 2001
Издатель (лейбл): Marco Polo
Номер по каталогу: 8.225091
Дата записи: 1990-94
Аудиокодек: FLAC
Тип рипа: image+.cue
Битрейт аудио: lossless
Продолжительность: 70:34
Источник: скачано с
Наличие сканов в содержимом раздачи: да
Треклист:
Alexander Moyzes (1906-1984)
Symfónia № 7 op. 50 (1954/55) 42'09'
I Pastorale (7:42)
III Scherzo (5:07)
II Largo (14:02)
IV Finale: Allegro tempestoso (15:23)
Symfónia № 8 op. 64 "21.08.1968" (1968/69) 28'20'
I Tranquillo (8:08)
II Allegro Molto (7:04)
III Allegro ma non troppo (13:06)
Исполнители:
Slovak Radio Symphony Orchestra
Ladislav Slovák, conductor
rec. april 1990 (7), dec. 1994

Лог создания рипа

Exact Audio Copy V0.99 prebeta 5 from 4. May 2009
EAC extraction logfile from 2. July 2010, 12:25
Slovak Radio Symphony Orchestra, Ladislav Slovбk / Moyzes - Symphony No.7 - Symphony No.8
Used drive : TSSTcorpCDDVDW SE-S224Q Adapter: 4 ID: 0
Read mode : Secure
Utilize accurate stream : Yes
Defeat audio cache : No
Make use of C2 pointers : No
Read offset correction : 6
Overread into Lead-In and Lead-Out : No
Fill up missing offset samples with silence : Yes
Delete leading and trailing silent blocks : No
Null samples used in CRC calculations : No
Used interface : Native Win32 interface for Win NT & 2000
Used output format : User Defined Encoder
Selected bitrate : 768 kBit/s
Quality : High
Add ID3 tag : Yes
Command line compressor : C:\Program Files\Exact Audio Copy\FLAC\FLAC.EXE
Additional command line options : -6 -V -T "ARTIST=%a" -T "TITLE=%t" -T "ALBUM=%g" -T "DATE=%y" -T "TRACKNUMBER=%n" -T "GENRE=%m" -T "COMMENT=%e" %s -o %d
TOC of the extracted CD
Track | Start | Length | Start sector | End sector
---------------------------------------------------------
1 | 0:00.00 | 7:42.20 | 0 | 34669
2 | 7:42.20 | 5:07.07 | 34670 | 57701
3 | 12:49.27 | 14:02.03 | 57702 | 120854
4 | 26:51.30 | 15:22.72 | 120855 | 190076
5 | 42:14.27 | 8:08.48 | 190077 | 226724
6 | 50:23.00 | 7:04.60 | 226725 | 258584
7 | 57:27.60 | 13:06.15 | 258585 | 317549
Range status and errors
Selected range
Filename D:\Moyzes - Symphony No.7 - Symphony No.8 - Slovak-SRSO - MARCO POLO\Moyzes - Symphony No.7 - Symphony No.8 - Slovak-SRSO - MARCO POLO.wav
Peak level 89.1 %
Range quality 100.0 %
Copy CRC 7F29C711
Copy OK
No errors occurred
AccurateRip summary
Track 1 not present in database
Track 2 not present in database
Track 3 not present in database
Track 4 not present in database
Track 5 not present in database
Track 6 not present in database
Track 7 not present in database
None of the tracks are present in the AccurateRip database
End of status report
Доп. информация: Александр Мойзес - основоположник словацкого симфонизма. Стиль его сложился под влиянием Й. Сука, Вит. Новака, Густава Малера, фольклорных традиций и современных тенденций в европейской музыке. Его музыка бурно-красочная, виртуозно оркестрованная, впечатляет плотностью и богатством пышной пост-романтической текстуры, отчасти в экспрессионистском духе (влияние малеровских концепций). В 1930-1950-х годах он написал многие из своих крупных произведений, в том числе такие шедевры, как военную 4-ю и ярко национальную 7-ю симфонию. В шестидесятые он повернул к оппозиционному нео-классицизму, проникнутому национальным чувством (8-я симфония "21.08.1968", поводом которой было вторжение СССР в Чехословакию). В более благоприятных 70-х пережил "бабье лето" неоромантизма (великолепная 10я симфония), возвратившись к оркестровым традициям Дворжака, Брамса и Чайковского.

О симфониях

Седьмая симфония построена на смешении классических и народных стилей. В ней ярко воплощены традиции словацкой музыки - одной из самых оригинальных в славянском и европейском фольклоре, известной ещё со времён Великой Моравии (9й век). Первая часть - Пастораль изображает идиллические сцены крестьянской Словакии с задумчивыми народными мелодиями, рождёнными наигрышами пастухов. Буколический дух пронизывает и скерцо - народный танец в словацком духе (Urpaar). Веселье нарушается спонтанным ритмическим фоном печального остинато струнных, предвещающего трагедию - симфония посвящена памяти трагически погибшей дочери композитора Марте. Третья часть - Ларго - интеллектуальный центр симфонии. Она начинается с медитативной мелодии необыкновенной красоты, которая неторопливо развивается, становится все более драматичной. Музыкальное напряжение усугубляет пунктирный ритм литавр. После долгого крещендо следуют мотивы отчаяния - у кларнета и скрипки соло. Человек остается один на один перед лицом жестокости судьбы. Четвертая часть, финал, объединяет все силы и оптимизм композитора, чтобы пережить трагедию. Тема финала - ритмично спонтанная, в духе энергичного словацкого танца.
Импульсом для создания, написанной через 14 лет следующей симфонии № 8 было вторжение СССР в Чехословакию 21 августа 1968 года. Мойзес был глубоко потрясён этим актом государственного терроризма против маленькой и беззащитной страны и задумал симфонию, которую окончил в феврале 1969-го, назвав "21.08.1968". Естественно, сочинение было немедленно запрещено и не исполнялось до 1989 года. Симфония написана для чрезвычайно большого состава оркестра. Атмосфера первой части - напряженная и зловещая, как предчувствие катастрофы. Робкие и странные пассажи арфы и челесты сопровождаются агрессивными военными сигналами духовых, из окриков которых вырастает вторая часть - Allegro Moltо - мрачное скерцо, похожее на знаменитое скерцо из Десятой симфонии Шостаковича, переходящее в похоронное шествие. Третья часть наполнена непрерывным волевым движением, прерываемым кратким разделом pesante, постепенно пререрастающим в грандиозный финал.



Показать сообщения:    

Текущее время: 09-Дек 20:29

Часовой пояс: UTC + 3


Вы не можете начинать темы
Вы не можете отвечать на сообщения
Вы не можете редактировать свои сообщения
Вы не можете удалять свои сообщения
Вы не можете голосовать в опросах
Вы не можете прикреплять файлы к сообщениям
Вы не можете скачивать файлы