(Classical) Domenico Scarlatti - Violin Sonatas - Paolo Perrone, Alexandra Nigito, Capella Tiberina - 2013, FLAC (image+.cue) lossless


 

[Цитировать]

Domenico Scarlatti - Violin Sonatas - Paolo Perrone, Alexandra Nigito, Capella Tiberina
Жанр: Classical
Год издания диска: 2013
Издатель (лейбл): Brilliant Classics
Номер по каталогу: 94325
Дата записи: 2012
Аудиокодек: FLAC
Тип рипа: image+.cue
Битрейт аудио: lossless
Продолжительность: 77:16
Источник: собственный рип
Наличие сканов в содержимом раздачи: да
Треклист:
Domenico Scarlatti (1685-1757)
Violin Sonatas
[1]-[3] Sonata K89 in D minor
[4]-[6] Sonata K73 in C minor
[7]-[10] Sonata K88 in G minor
[11]-[12] Sonata K78 in F major
[13] Fuga K82 in F major
[14]-[17] Sonata K90 in D minor
[18] Minuetto K94 in F major
[19]-[22] Sonata K81 in E minor
[23] Sonata K84 in C minor
[24] Sonata K85 in F major
[25]-[26] Sonata K77 in D minor
[27] Sonata K132 in C major - Cantabile
[28]-[31] Sonata K91 in G major
Исполнители:
Paolo Perrone baroque violin
Alexandra Nigito harpsichord
Capella Tiberina

Лог создания рипа

Exact Audio Copy V1.0 beta 3 from 29. August 2011
EAC extraction logfile from 3. June 2015, 21:54
Paolo Perrone, Alexandra Nigito, Capella Tiberina / Domenico Scarlatti - Violin Sonatas
Used drive : HL-DT-STDVDRAM GU70N Adapter: 0 ID: 0
Read mode : Secure
Utilize accurate stream : Yes
Defeat audio cache : Yes
Make use of C2 pointers : No
Read offset correction : 48
Overread into Lead-In and Lead-Out : No
Fill up missing offset samples with silence : Yes
Delete leading and trailing silent blocks : No
Null samples used in CRC calculations : Yes
Used interface : Native Win32 interface for Win NT & 2000
Used output format : User Defined Encoder
Selected bitrate : 128 kBit/s
Quality : High
Add ID3 tag : No
Command line compressor : C:\Program Files (x86)\Exact Audio Copy\Flac\flac.exe
Additional command line options : -V -8 -T "Date=%year%" -T "Genre=%genre%" %source%
TOC of the extracted CD
Track | Start | Length | Start sector | End sector
---------------------------------------------------------
1 | 0:00.00 | 3:18.32 | 0 | 14881
2 | 3:18.32 | 1:19.58 | 14882 | 20864
3 | 4:38.15 | 2:05.51 | 20865 | 30290
4 | 6:43.66 | 2:24.17 | 30291 | 41107
5 | 9:08.08 | 1:33.68 | 41108 | 48150
6 | 10:42.01 | 1:03.07 | 48151 | 52882
7 | 11:45.08 | 2:36.20 | 52883 | 64602
8 | 14:21.28 | 2:47.39 | 64603 | 77166
9 | 17:08.67 | 1:33.72 | 77167 | 84213
10 | 18:42.64 | 1:27.05 | 84214 | 90743
11 | 20:09.69 | 1:58.48 | 90744 | 99641
12 | 22:08.42 | 0:51.35 | 99642 | 103501
13 | 23:00.02 | 2:50.74 | 103502 | 116325
14 | 25:51.01 | 2:57.63 | 116326 | 129663
15 | 28:48.64 | 4:34.55 | 129664 | 150268
16 | 33:23.44 | 1:08.62 | 150269 | 155430
17 | 34:32.31 | 1:21.28 | 155431 | 161533
18 | 35:53.59 | 2:00.08 | 161534 | 170541
19 | 37:53.67 | 1:54.70 | 170542 | 179161
20 | 39:48.62 | 2:23.15 | 179162 | 189901
21 | 42:12.02 | 2:30.35 | 189902 | 201186
22 | 44:42.37 | 1:36.44 | 201187 | 208430
23 | 46:19.06 | 4:46.43 | 208431 | 229923
24 | 51:05.49 | 1:39.22 | 229924 | 237370
25 | 52:44.71 | 5:07.33 | 237371 | 260428
26 | 57:52.29 | 1:47.00 | 260429 | 268453
27 | 59:39.29 | 9:11.55 | 268454 | 309833
28 | 68:51.09 | 1:52.49 | 309834 | 318282
29 | 70:43.58 | 3:28.42 | 318283 | 333924
30 | 74:12.25 | 1:14.21 | 333925 | 339495
31 | 75:26.46 | 1:50.27 | 339496 | 347772
Range status and errors
Selected range
Filename C:\temp\Domenico Scarlatti - Violin Sonatas\Domenico Scarlatti - Violin Sonatas.wav
Peak level 94.5 %
Extraction speed 2.3 X
Range quality 100.0 %
Test CRC 38D4D5CC
Copy CRC 38D4D5CC
Copy OK
No errors occurred
AccurateRip summary
Track 1 accurately ripped (confidence 1) [CA0E8C70] (AR v2)
Track 2 accurately ripped (confidence 1) [C1329B93] (AR v2)
Track 3 accurately ripped (confidence 1) [24872719] (AR v2)
Track 4 accurately ripped (confidence 1) [A04105BC] (AR v2)
Track 5 accurately ripped (confidence 1) [46729242] (AR v2)
Track 6 accurately ripped (confidence 1) [E36516AF] (AR v2)
Track 7 accurately ripped (confidence 1) [1D479C31] (AR v2)
Track 8 accurately ripped (confidence 1) [45EC9B58] (AR v2)
Track 9 accurately ripped (confidence 1) [CBBDBC5F] (AR v2)
Track 10 accurately ripped (confidence 1) [C5C6165F] (AR v2)
Track 11 accurately ripped (confidence 1) [E149B3BA] (AR v2)
Track 12 accurately ripped (confidence 1) [93957431] (AR v2)
Track 13 accurately ripped (confidence 1) [32146C5C] (AR v2)
Track 14 accurately ripped (confidence 1) [626C9E36] (AR v2)
Track 15 accurately ripped (confidence 1) [7454B3C1] (AR v2)
Track 16 accurately ripped (confidence 1) [60618B71] (AR v2)
Track 17 accurately ripped (confidence 1) [B37387AB] (AR v2)
Track 18 accurately ripped (confidence 1) [DA9D3BEE] (AR v2)
Track 19 accurately ripped (confidence 1) [16D93DB7] (AR v2)
Track 20 accurately ripped (confidence 1) [B32F2060] (AR v2)
Track 21 accurately ripped (confidence 1) [6FACE9FB] (AR v2)
Track 22 accurately ripped (confidence 1) [A1465E11] (AR v2)
Track 23 accurately ripped (confidence 1) [BCE55D09] (AR v2)
Track 24 accurately ripped (confidence 1) [BC0B8F38] (AR v2)
Track 25 accurately ripped (confidence 1) [0240F48E] (AR v2)
Track 26 accurately ripped (confidence 1) [89A37F40] (AR v2)
Track 27 accurately ripped (confidence 1) [F2F25BBF] (AR v2)
Track 28 accurately ripped (confidence 1) [CF3D298C] (AR v2)
Track 29 accurately ripped (confidence 1) [33538819] (AR v2)
Track 30 accurately ripped (confidence 1) [6AB41F28] (AR v2)
Track 31 accurately ripped (confidence 1) [9C50F900] (AR v2)
All tracks accurately ripped
End of status report
==== Log checksum 3994405F04494E2CF7720B3CBC29F6B25FAB8FB7786A575B379E4B6D7467178C ====



Показать сообщения:    

Текущее время: 10-Дек 00:20

Часовой пояс: UTC + 3


Вы не можете начинать темы
Вы не можете отвечать на сообщения
Вы не можете редактировать свои сообщения
Вы не можете удалять свои сообщения
Вы не можете голосовать в опросах
Вы не можете прикреплять файлы к сообщениям
Вы не можете скачивать файлы