(Orchestral) Gustav Mahler - Symphonien Nrn.2 und 3 (L.West • H.Donаth • B.Finnilа • Radio-Sinfonie-Orchester Stuttgart • Berliner Philharmoniker • J.Barbirolli) - 1990, FLAC (image+.cue) lossless


 

[Цитировать]

Gustav Mahler
Sinfonia n.3 in Re minore
Sinfonia n.2 in Do minore
'Resurrezione'
--- Жанр: Orchestral
Страна-производитель диска: Italy
Год издания диска: 1990
Издатель (лейбл): HUNT
Дата записи: 1969/70
Аудиокодек: FLAC
Тип рипа: image+.cue
Битрейт аудио: lossless
Продолжительность: 3:01'03''
Источник: собственный рип
Наличие сканов в содержимом раздачи: да
Треклист:

CD1

[01] Symphonie Nr.3: I. Kräftig. Entschieden
[02] II. Tempo di Menuetto. Sehr mässig
[03] III. Comodo. Scherzando. Ohne Hast

Лог создания рипа

Exact Audio Copy V1.0 beta 4 from 7. December 2014
EAC extraction logfile from 16. February 2015, 22:54
Berliner Philharmoniker - John Barbirolli / Mahler - Symphonien Nrn.3 und 2 (CD1)
Used drive : HL-DT-STDVD+-RW GU90N Adapter: 1 ID: 0
Read mode : Secure
Utilize accurate stream : Yes
Defeat audio cache : Yes
Make use of C2 pointers : No
Read offset correction : 102
Overread into Lead-In and Lead-Out : No
Fill up missing offset samples with silence : Yes
Delete leading and trailing silent blocks : No
Null samples used in CRC calculations : Yes
Used interface : Native Win32 interface for Win NT & 2000
Used output format : User Defined Encoder
Selected bitrate : 1024 kBit/s
Quality : High
Add ID3 tag : No
Command line compressor : C:\Program Files (x86)\FLAC\flac.exe
Additional command line options : -T "COMMENT=rip by el coronel" -8 -V %source%
TOC of the extracted CD
Track | Start | Length | Start sector | End sector
---------------------------------------------------------
1 | 0:00.33 | 36:09.25 | 33 | 162732
2 | 36:09.58 | 10:25.00 | 162733 | 209607
3 | 46:34.58 | 17:22.50 | 209608 | 287807
Range status and errors
Selected range
Filename F:\Music\Mahler 2 3 Barbirolli [HUNT]\CD1.wav
Peak level 91.3 %
Extraction speed 4.5 X
Range quality 100.0 %
Test CRC 16BAFD76
Copy CRC 16BAFD76
Copy OK
No errors occurred
AccurateRip summary
Track 1 accurately ripped (confidence 2) [D4F869C7] (AR v2)
Track 2 accurately ripped (confidence 2) [630E0AF9] (AR v2)
Track 3 accurately ripped (confidence 2) [ED463976] (AR v2)
All tracks accurately ripped
End of status report
---- CUETools DB Plugin V2.1.4
[CTDB TOCID: uMEv_CLcxPD35VFl.t9Npl2uwbQ-] found
Submit result: uMEv_CLcxPD35VFl.t9Npl2uwbQ- has been confirmed
Track | CTDB Status
1 | (1/1) Accurately ripped
2 | (1/1) Accurately ripped
3 | (1/1) Accurately ripped
==== Log checksum AEF0CCF25A247CDE49C4F268597463AF15FBF88E5E66BFD644DEF6185C0A341A ====

Содержание индексной карты (.CUE)

REM GENRE Classical
REM DATE 1990
REM DISCID 250EFD03
REM COMMENT "ExactAudioCopy v1.0b4"
PERFORMER "Berliner Philharmoniker - John Barbirolli"
TITLE "Mahler - Symphonien Nrn.3 und 2 (CD1)"
FILE "CD1.flac" WAVE
TRACK 01 AUDIO
TITLE "Symphonie Nr.3 - I. Kraftig. Entschieden"
PERFORMER "Berliner Philharmoniker - John Barbirolli"
INDEX 00 00:00:00
INDEX 01 00:00:33
TRACK 02 AUDIO
TITLE "II. Tempo di Menuetto. Sehr massig"
PERFORMER "Berliner Philharmoniker - John Barbirolli"
INDEX 01 36:09:58
TRACK 03 AUDIO
TITLE "III. Comodo. Scherzando. Ohne Hast"
PERFORMER "Berliner Philharmoniker - John Barbirolli"
INDEX 01 46:34:58

CD2

[01] Symphonie Nr.3: IV. Sehr langsam. Misterioso
[02] V. Lustig im Tempo und keck im Ausdruck
[03] VI. Langsam. Ruhevoll. Empfunden
[04] Symphonie Nr.2: I. Allegro maestoso

Лог создания рипа

Exact Audio Copy V1.0 beta 4 from 7. December 2014
EAC extraction logfile from 16. February 2015, 23:27
Berliner Philharmoniker - John Barbirolli / Mahler - Symphonien Nrn.3 und 2 (CD2)
Used drive : HL-DT-STDVD+-RW GU90N Adapter: 1 ID: 0
Read mode : Secure
Utilize accurate stream : Yes
Defeat audio cache : Yes
Make use of C2 pointers : No
Read offset correction : 102
Overread into Lead-In and Lead-Out : No
Fill up missing offset samples with silence : Yes
Delete leading and trailing silent blocks : No
Null samples used in CRC calculations : Yes
Used interface : Native Win32 interface for Win NT & 2000
Used output format : User Defined Encoder
Selected bitrate : 1024 kBit/s
Quality : High
Add ID3 tag : No
Command line compressor : C:\Program Files (x86)\FLAC\flac.exe
Additional command line options : -T "COMMENT=rip by el coronel" -8 -V %source%
TOC of the extracted CD
Track | Start | Length | Start sector | End sector
---------------------------------------------------------
1 | 0:00.33 | 9:05.50 | 33 | 40957
2 | 9:06.08 | 4:29.12 | 40958 | 61144
3 | 13:35.20 | 22:04.13 | 61145 | 160457
4 | 35:39.33 | 21:24.00 | 160458 | 256757
Range status and errors
Selected range
Filename F:\Music\Mahler 2 3 Barbirolli [HUNT]\CD2.wav
Peak level 99.9 %
Extraction speed 4.4 X
Range quality 100.0 %
Test CRC 943F77B8
Copy CRC 943F77B8
Copy OK
No errors occurred
AccurateRip summary
Track 1 accurately ripped (confidence 2) [85163E2A] (AR v2)
Track 2 accurately ripped (confidence 2) [9038AF13] (AR v2)
Track 3 accurately ripped (confidence 2) [D11304DB] (AR v2)
Track 4 accurately ripped (confidence 2) [CD3B9588] (AR v2)
All tracks accurately ripped
End of status report
---- CUETools DB Plugin V2.1.4
[CTDB TOCID: fMeFLCf2e5tGikHII8uU0Wp9JHk-] found
Submit result: fMeFLCf2e5tGikHII8uU0Wp9JHk- has been confirmed
Track | CTDB Status
1 | (1/1) Accurately ripped
2 | (1/1) Accurately ripped
3 | (1/1) Accurately ripped
4 | (1/1) Accurately ripped
==== Log checksum 00C5BA89275B4AECBF00FC2310340BB8CF867502FBF4258C9B87B08F7B1A56D7 ====

Содержание индексной карты (.CUE)

REM GENRE Classical
REM DATE 1990
REM DISCID 2B0D5F04
REM COMMENT "ExactAudioCopy v1.0b4"
PERFORMER "Berliner Philharmoniker - John Barbirolli"
TITLE "Mahler - Symphonien Nrn.3 und 2 (CD2)"
FILE "CD2.flac" WAVE
TRACK 01 AUDIO
TITLE "Symphonie Nr.3 - IV. Sehr langsam. Misterioso"
PERFORMER "Berliner Philharmoniker - John Barbirolli"
INDEX 00 00:00:00
INDEX 01 00:00:33
TRACK 02 AUDIO
TITLE "V. Lustig im Tempo und keck im Ausdruck"
PERFORMER "Lucretia West; Berliner Philharmoniker - John Barbirolli"
INDEX 01 09:06:08
TRACK 03 AUDIO
TITLE "VI. Langsam. Ruhevoll. Empfunden"
PERFORMER "Berliner Philharmoniker - John Barbirolli"
INDEX 01 13:35:20
TRACK 04 AUDIO
TITLE "Symphonie Nr.2 - I. Allegro maestoso"
PERFORMER "Radiosinfonieorchester Stuttgart - John Barbirolli"
INDEX 01 35:39:33

CD3

[01] Symphonie Nr.2: II. Andante moderato
[02] III. Scherzo. In ruhig fliessender Bewegung
[03] IV. »Urlicht«. Sehr feierlichm aber schlicht
[04] V. In Tempo des Scherzo. Wild Herausfahrend

Лог создания рипа

Exact Audio Copy V1.0 beta 4 from 7. December 2014
EAC extraction logfile from 17. February 2015, 0:08
Radiosinfonieorchester Stuttgart - John Barbirolli / Mahler - Symphonien Nrn.3 und 2 (CD3)
Used drive : HL-DT-STDVD+-RW GU90N Adapter: 1 ID: 0
Read mode : Secure
Utilize accurate stream : Yes
Defeat audio cache : Yes
Make use of C2 pointers : No
Read offset correction : 102
Overread into Lead-In and Lead-Out : No
Fill up missing offset samples with silence : Yes
Delete leading and trailing silent blocks : No
Null samples used in CRC calculations : Yes
Used interface : Native Win32 interface for Win NT & 2000
Used output format : User Defined Encoder
Selected bitrate : 1024 kBit/s
Quality : High
Add ID3 tag : No
Command line compressor : C:\Program Files (x86)\FLAC\flac.exe
Additional command line options : -T "COMMENT=rip by el coronel" -8 -V %source%
TOC of the extracted CD
Track | Start | Length | Start sector | End sector
---------------------------------------------------------
1 | 0:00.33 | 10:16.62 | 33 | 46294
2 | 10:17.20 | 11:30.25 | 46295 | 98069
3 | 21:47.45 | 4:48.50 | 98070 | 119719
4 | 26:36.20 | 33:27.13 | 119720 | 270257
Range status and errors
Selected range
Filename F:\Music\Mahler 2 3 Barbirolli [HUNT]\CD3.wav
Peak level 100.0 %
Extraction speed 4.4 X
Range quality 100.0 %
Test CRC 9A0D31B5
Copy CRC 9A0D31B5
Copy OK
No errors occurred
AccurateRip summary
Track 1 accurately ripped (confidence 1) [2A497C12] (AR v2)
Track 2 accurately ripped (confidence 1) [DD22C9B5] (AR v2)
Track 3 accurately ripped (confidence 1) [C4FE0187] (AR v2)
Track 4 accurately ripped (confidence 1) [E139630B] (AR v2)
All tracks accurately ripped
End of status report
---- CUETools DB Plugin V2.1.4
[CTDB TOCID: 4IOrQzsKyio8.qSWo6G3SngJm8Q-] found
Submit result: 4IOrQzsKyio8.qSWo6G3SngJm8Q- has been confirmed
Track | CTDB Status
1 | (1/1) Accurately ripped
2 | (1/1) Accurately ripped
3 | (1/1) Accurately ripped
4 | (1/1) Accurately ripped
==== Log checksum 676063167EDAB2D10372C3BABACA89B32A64CCC951BCCBAFB6D831C674F91759 ====

Содержание индексной карты (.CUE)

REM GENRE Classical
REM DATE 1990
REM DISCID 360E1304
REM COMMENT "ExactAudioCopy v1.0b4"
PERFORMER "Radiosinfonieorchester Stuttgart - John Barbirolli"
TITLE "Mahler - Symphonien Nrn.3 und 2 (CD3)"
FILE "CD3.flac" WAVE
TRACK 01 AUDIO
TITLE "Symphonie Nr.2 - II. Andante moderato"
PERFORMER "Radiosinfonieorchester Stuttgart - John Barbirolli"
INDEX 00 00:00:00
INDEX 01 00:00:33
TRACK 02 AUDIO
TITLE "III. Scherzo. In ruhig fliessender Bewegung"
PERFORMER "Radiosinfonieorchester Stuttgart - John Barbirolli"
INDEX 01 10:17:20
TRACK 03 AUDIO
TITLE "IV. 'Urlicht'. Sehr feierlichm aber schlicht"
PERFORMER "Helen Donath; Radiosinfonieorchester Stuttgart - John Barbirolli"
INDEX 01 21:47:45
TRACK 04 AUDIO
TITLE "V. In Tempo des Scherzo. Wild Herausfahrend"
PERFORMER "Helen Donath,Birgit Finnila; Radiosinfonieorchester Stuttgart - John Barbirolli"
INDEX 01 26:36:20
Исполнители:
Helen Donath - soprano
Lucretia West [No.3] • Birgit Finnilä [No.2] - mezzo-soprano
Berliner Philharmoniker [No.3]
Radio-Sinfonie-Orchester Stuttgart [No.2]
Sir John Barbirolli



Показать сообщения:    

Текущее время: 09-Дек 06:53

Часовой пояс: UTC + 3


Вы не можете начинать темы
Вы не можете отвечать на сообщения
Вы не можете редактировать свои сообщения
Вы не можете удалять свои сообщения
Вы не можете голосовать в опросах
Вы не можете прикреплять файлы к сообщениям
Вы не можете скачивать файлы