(Classical) Paul Hindemith - Orchestral Music - Dresden Philharmonic Orchestra, Herbert Kegel; Staatskapelle Dresden, Otmar Suitner - 5CD - 2013, FLAC (image+.cue) lossless


 

[Цитировать]

Paul Hindemith - Orchestral Music - Dresden Philharmonic Orchestra, Herbert Kegel; Staatskapelle Dresden, Otmar Suitner
Жанр: Classical
Год издания диска: 2013
Издатель (лейбл): Brilliant Classics
Номер по каталогу: 9441
Дата записи: 1969-1985
Аудиокодек: FLAC
Тип рипа: image+.cue
Битрейт аудио: lossless
Продолжительность: 4:58:36
Источник: собственный рип
Наличие сканов в содержимом раздачи: да
Треклист:
Paul Hindemith (1895-1963)

CD1-CD3

CD1
[1]-[3] Symphony 'Mathis der Maler' (1933-5)
[4]-[6] Concerto for Trumpet, Bassoon and Strings (1949-52)
Ludwig Güttler trumpet
Eckart Königstedt bassoon
[7]-[9] Nobilissima visione - Orchestral Suite (1938)
CD2
[1]-[4] Symphony in E flat (1940)
[5]-[8] Symphonia serena (1946)
CD3
[1]-[3] Symphony 'Die Harmonie der Welt'
[4]-[6] Pittsburgh Symphony
Dresden Philharmonic Orchestra
Herbert Kegel

CD4-CD5

CD4
[1]-[3] Der Schwanendreher for Viola and Small Orchestra (1935)
Alfred Lipka viola
[4]-[7] Trauermusik for Viola and String Orchestra (1936)
Davia Binder viola
Rundfunk-Sinfonie-Orchester Leipzig
Herbert Kegel

[8]-[11] Symphonic Metamorphosis after Themes by Carl Maria von Weber (1943)
Staatskapelle Dresden
Otmar Suitner

CD5
[1]-[12] Wir bauen eine Stadt (Ein Spiel für Kinder) (1930)
Rundfunk-Kinderchor Leipzig
Instrumental Ensemble
Hans Sandig

[13]-[25] Kinderlieder by miscellaneous composers
Rundfunk-Vorschulkinderchor Leipzig
Kleiner Rundfunk-Kinderchor Leipzig
Instrumental Ensemble
Hans Sandig
Исполнители:
Dresden Philharmonic Orchestra
Rundfunk-Sinfonie-Orchester Leipzig
Herbert Kegel
Staatskapelle Dresden
Otmar Suitner
Rundfunk-Kinderchor Leipzig
Rundfunk-Vorschulkinderchor Leipzig
Kleiner Rundfunk-Kinderchor Leipzig
Hans Sandig

Лог создания рипа: CD1

Exact Audio Copy V1.0 beta 3 from 29. August 2011
EAC extraction logfile from 21. January 2015, 1:24
Dresden Philharmonic Orchestra, Herbert Kegel / Hindemith - Orchestral Music - CD1
Used drive : HL-DT-STDVDRAM GU70N Adapter: 0 ID: 0
Read mode : Secure
Utilize accurate stream : Yes
Defeat audio cache : Yes
Make use of C2 pointers : No
Read offset correction : 48
Overread into Lead-In and Lead-Out : No
Fill up missing offset samples with silence : Yes
Delete leading and trailing silent blocks : No
Null samples used in CRC calculations : Yes
Used interface : Native Win32 interface for Win NT & 2000
Used output format : User Defined Encoder
Selected bitrate : 128 kBit/s
Quality : High
Add ID3 tag : No
Command line compressor : C:\Program Files (x86)\Exact Audio Copy\Flac\flac.exe
Additional command line options : -V -8 -T "Date=%year%" -T "Genre=%genre%" %source%
TOC of the extracted CD
Track | Start | Length | Start sector | End sector
---------------------------------------------------------
1 | 0:00.00 | 8:22.50 | 0 | 37699
2 | 8:22.50 | 5:08.32 | 37700 | 60831
3 | 13:31.07 | 14:00.70 | 60832 | 123901
4 | 27:32.02 | 6:21.33 | 123902 | 152509
5 | 33:53.35 | 8:49.62 | 152510 | 192246
6 | 42:43.22 | 1:28.18 | 192247 | 198864
7 | 44:11.40 | 7:01.45 | 198865 | 230484
8 | 51:13.10 | 8:24.50 | 230485 | 268334
9 | 59:37.60 | 5:40.57 | 268335 | 293891
Range status and errors
Selected range
Filename C:\temp\Hindemith - Orchestral Music - Dresden PO, Kegel\CD1\Hindemith - Orchestral Music - CD1.wav
Peak level 98.8 %
Extraction speed 2.1 X
Range quality 99.9 %
Test CRC E3831CF3
Copy CRC E3831CF3
Copy OK
No errors occurred
AccurateRip summary
Track 1 cannot be verified as accurate (confidence 3) [7877D9B5], AccurateRip returned [D81A7DF9] (AR v2)
Track 2 cannot be verified as accurate (confidence 3) [C50B132A], AccurateRip returned [B78B8371] (AR v2)
Track 3 cannot be verified as accurate (confidence 3) [D8D22469], AccurateRip returned [E588C33F] (AR v2)
Track 4 cannot be verified as accurate (confidence 3) [2D1E4EF4], AccurateRip returned [0510BBEB] (AR v2)
Track 5 cannot be verified as accurate (confidence 3) [87EEA259], AccurateRip returned [0FA76D23] (AR v2)
Track 6 cannot be verified as accurate (confidence 3) [3701FB4A], AccurateRip returned [DB34F2C4] (AR v2)
Track 7 cannot be verified as accurate (confidence 3) [4C161042], AccurateRip returned [2D898BB8] (AR v2)
Track 8 cannot be verified as accurate (confidence 3) [C2E7AEA9], AccurateRip returned [EE3659AB] (AR v2)
Track 9 cannot be verified as accurate (confidence 3) [B552A4D2], AccurateRip returned [884D941A] (AR v2)
No tracks could be verified as accurate
You may have a different pressing from the one(s) in the database
End of status report
==== Log checksum 7F8E055EDF89404DF9A8C097AF3AF29DC4940747AE399EE49F1FB232C6A2CC71 ====

Лог создания рипа: CD2

Exact Audio Copy V1.0 beta 3 from 29. August 2011
EAC extraction logfile from 23. January 2015, 1:06
Dresden Philharmonic Orchestra, Herbert Kegel / Hindemith - Orchestral Music - CD2
Used drive : HL-DT-STDVDRAM GU70N Adapter: 0 ID: 0
Read mode : Secure
Utilize accurate stream : Yes
Defeat audio cache : Yes
Make use of C2 pointers : No
Read offset correction : 48
Overread into Lead-In and Lead-Out : No
Fill up missing offset samples with silence : Yes
Delete leading and trailing silent blocks : No
Null samples used in CRC calculations : Yes
Used interface : Native Win32 interface for Win NT & 2000
Used output format : User Defined Encoder
Selected bitrate : 128 kBit/s
Quality : High
Add ID3 tag : No
Command line compressor : C:\Program Files (x86)\Exact Audio Copy\Flac\flac.exe
Additional command line options : -V -8 -T "Date=%year%" -T "Genre=%genre%" %source%
TOC of the extracted CD
Track | Start | Length | Start sector | End sector
---------------------------------------------------------
1 | 0:00.00 | 4:37.35 | 0 | 20809
2 | 4:37.35 | 10:43.00 | 20810 | 69034
3 | 15:20.35 | 2:57.57 | 69035 | 82366
4 | 18:18.17 | 15:00.30 | 82367 | 149896
5 | 33:18.47 | 10:03.10 | 149897 | 195131
6 | 43:21.57 | 3:38.68 | 195132 | 211549
7 | 47:00.50 | 9:31.62 | 211550 | 254436
8 | 56:32.37 | 9:24.55 | 254437 | 296791
Range status and errors
Selected range
Filename C:\temp\Hindemith - Orchestral Music - Dresden PO, Kegel\CD2\Hindemith - Orchestral Music - CD2.wav
Peak level 97.9 %
Extraction speed 2.1 X
Range quality 100.0 %
Test CRC 1551DB45
Copy CRC 1551DB45
Copy OK
No errors occurred
AccurateRip summary
Track 1 cannot be verified as accurate (confidence 3) [FFB21002], AccurateRip returned [E76F2171] (AR v2)
Track 2 cannot be verified as accurate (confidence 3) [0EF8CAAC], AccurateRip returned [E73BF973] (AR v2)
Track 3 cannot be verified as accurate (confidence 3) [D0AE3B10], AccurateRip returned [26ABA220] (AR v2)
Track 4 cannot be verified as accurate (confidence 3) [F917ECAD], AccurateRip returned [51B81463] (AR v2)
Track 5 cannot be verified as accurate (confidence 3) [043AF805], AccurateRip returned [879808AC] (AR v2)
Track 6 cannot be verified as accurate (confidence 3) [817FB0CE], AccurateRip returned [F4DAB5EE] (AR v2)
Track 7 cannot be verified as accurate (confidence 3) [4A234CD9], AccurateRip returned [B3D5D53C] (AR v2)
Track 8 cannot be verified as accurate (confidence 3) [A5F8D7A2], AccurateRip returned [D4CD4ECA] (AR v2)
No tracks could be verified as accurate
You may have a different pressing from the one(s) in the database
End of status report
==== Log checksum 485B79F909FB7902472BD450879D49645147D61B6D663CEB29B126C915C9063E ====

Лог создания рипа: CD3

Exact Audio Copy V1.0 beta 3 from 29. August 2011
EAC extraction logfile from 23. January 2015, 2:15
Dresden Philharmonic Orchestra, Herbert Kegel / Hindemith - Orchestral Music - CD3
Used drive : HL-DT-STDVDRAM GU70N Adapter: 0 ID: 0
Read mode : Secure
Utilize accurate stream : Yes
Defeat audio cache : Yes
Make use of C2 pointers : No
Read offset correction : 48
Overread into Lead-In and Lead-Out : No
Fill up missing offset samples with silence : Yes
Delete leading and trailing silent blocks : No
Null samples used in CRC calculations : Yes
Used interface : Native Win32 interface for Win NT & 2000
Used output format : User Defined Encoder
Selected bitrate : 128 kBit/s
Quality : High
Add ID3 tag : No
Command line compressor : C:\Program Files (x86)\Exact Audio Copy\Flac\flac.exe
Additional command line options : -V -8 -T "Date=%year%" -T "Genre=%genre%" %source%
TOC of the extracted CD
Track | Start | Length | Start sector | End sector
---------------------------------------------------------
1 | 0:00.00 | 11:33.37 | 0 | 52011
2 | 11:33.37 | 9:59.60 | 52012 | 96996
3 | 21:33.22 | 13:13.18 | 96997 | 156489
4 | 34:46.40 | 7:41.15 | 156490 | 191079
5 | 42:27.55 | 13:51.05 | 191080 | 253409
6 | 56:18.60 | 5:46.45 | 253410 | 279404
Range status and errors
Selected range
Filename C:\temp\Hindemith - Orchestral Music - Dresden PO, Kegel\CD3\Hindemith - Orchestral Music - CD3.wav
Peak level 99.8 %
Extraction speed 2.1 X
Range quality 99.9 %
Test CRC EB058E91
Copy CRC EB058E91
Copy OK
No errors occurred
AccurateRip summary
Track 1 cannot be verified as accurate (confidence 3) [6A7AE558], AccurateRip returned [2716EF0A] (AR v2)
Track 2 cannot be verified as accurate (confidence 3) [01DD9F14], AccurateRip returned [70F9C85B] (AR v2)
Track 3 cannot be verified as accurate (confidence 3) [6F7B01AC], AccurateRip returned [DE7DC5A1] (AR v2)
Track 4 cannot be verified as accurate (confidence 3) [102ADEB4], AccurateRip returned [FD49F296] (AR v2)
Track 5 cannot be verified as accurate (confidence 3) [D47BAA28], AccurateRip returned [1459A353] (AR v2)
Track 6 cannot be verified as accurate (confidence 2) [777B973F], AccurateRip returned [528BAF2F] (AR v2)
No tracks could be verified as accurate
You may have a different pressing from the one(s) in the database
End of status report
==== Log checksum 227D5994A3F16A1FC91AECF43CD34A89675470B3024CAE1B53939F935856C1D9 ====

Лог создания рипа: CD4

Exact Audio Copy V1.0 beta 3 from 29. August 2011
EAC extraction logfile from 23. January 2015, 21:23
Rundfunk-Sinfonie-Orchester Leipzig, Herbert Kegel / Hindemith - Orchestral Music - CD4
Used drive : HL-DT-STDVDRAM GU70N Adapter: 0 ID: 0
Read mode : Secure
Utilize accurate stream : Yes
Defeat audio cache : Yes
Make use of C2 pointers : No
Read offset correction : 48
Overread into Lead-In and Lead-Out : No
Fill up missing offset samples with silence : Yes
Delete leading and trailing silent blocks : No
Null samples used in CRC calculations : Yes
Used interface : Native Win32 interface for Win NT & 2000
Used output format : User Defined Encoder
Selected bitrate : 128 kBit/s
Quality : High
Add ID3 tag : No
Command line compressor : C:\Program Files (x86)\Exact Audio Copy\Flac\flac.exe
Additional command line options : -V -8 -T "Date=%year%" -T "Genre=%genre%" %source%
TOC of the extracted CD
Track | Start | Length | Start sector | End sector
---------------------------------------------------------
1 | 0:00.00 | 7:18.10 | 0 | 32859
2 | 7:18.10 | 9:31.38 | 32860 | 75722
3 | 16:49.48 | 9:29.20 | 75723 | 118417
4 | 26:18.68 | 3:29.07 | 118418 | 134099
5 | 29:48.00 | 0:51.25 | 134100 | 137949
6 | 30:39.25 | 1:21.40 | 137950 | 144064
7 | 32:00.65 | 2:22.57 | 144065 | 154771
8 | 34:23.47 | 4:21.17 | 154772 | 174363
9 | 38:44.64 | 7:50.38 | 174364 | 209651
10 | 46:35.27 | 4:12.42 | 209652 | 228593
11 | 50:47.69 | 4:25.31 | 228594 | 248499
Range status and errors
Selected range
Filename C:\temp\Hindemith - Orchestral Music - Dresden PO, Kegel\CD4\Hindemith - Orchestral Music - CD4.wav
Peak level 98.8 %
Extraction speed 5.0 X
Range quality 100.0 %
Test CRC 7FDA280B
Copy CRC 7FDA280B
Copy OK
No errors occurred
AccurateRip summary
Track 1 accurately ripped (confidence 1) [9673B92D] (AR v2)
Track 2 accurately ripped (confidence 1) [9E549A65] (AR v2)
Track 3 accurately ripped (confidence 1) [DFEFE7F3] (AR v2)
Track 4 accurately ripped (confidence 1) [F1D2C97A] (AR v2)
Track 5 accurately ripped (confidence 1) [F85E85D0] (AR v2)
Track 6 accurately ripped (confidence 1) [A3548148] (AR v2)
Track 7 accurately ripped (confidence 1) [6FE684F7] (AR v2)
Track 8 accurately ripped (confidence 1) [739F2CA5] (AR v2)
Track 9 accurately ripped (confidence 1) [FE8785FF] (AR v2)
Track 10 accurately ripped (confidence 1) [B379150F] (AR v2)
Track 11 accurately ripped (confidence 1) [9DC480A5] (AR v2)
All tracks accurately ripped
End of status report
==== Log checksum 1CB1E37BEA02B8BF4DE3A56119C98BD48F1609E5FAF6C5B75FB621E39DE3E475 ====

Лог создания рипа: CD5

Exact Audio Copy V1.0 beta 3 from 29. August 2011
EAC extraction logfile from 24. January 2015, 1:58
Instrumental Ensemble, Hans Sandig / Hindemith - Orchestral Music - CD5
Used drive : HL-DT-STDVDRAM GU70N Adapter: 0 ID: 0
Read mode : Secure
Utilize accurate stream : Yes
Defeat audio cache : Yes
Make use of C2 pointers : No
Read offset correction : 48
Overread into Lead-In and Lead-Out : No
Fill up missing offset samples with silence : Yes
Delete leading and trailing silent blocks : No
Null samples used in CRC calculations : Yes
Used interface : Native Win32 interface for Win NT & 2000
Used output format : User Defined Encoder
Selected bitrate : 128 kBit/s
Quality : High
Add ID3 tag : No
Command line compressor : C:\Program Files (x86)\Exact Audio Copy\Flac\flac.exe
Additional command line options : -V -8 -T "Date=%year%" -T "Genre=%genre%" %source%
TOC of the extracted CD
Track | Start | Length | Start sector | End sector
---------------------------------------------------------
1 | 0:00.00 | 4:02.35 | 0 | 18184
2 | 4:02.35 | 1:15.12 | 18185 | 23821
3 | 5:17.47 | 1:42.48 | 23822 | 31519
4 | 7:00.20 | 1:10.22 | 31520 | 36791
5 | 8:10.42 | 1:22.05 | 36792 | 42946
6 | 9:32.47 | 1:13.58 | 42947 | 48479
7 | 10:46.30 | 2:51.30 | 48480 | 61334
8 | 13:37.60 | 1:49.72 | 61335 | 69581
9 | 15:27.57 | 1:32.13 | 69582 | 76494
10 | 16:59.70 | 1:35.59 | 76495 | 83678
11 | 18:35.54 | 4:08.18 | 83679 | 102296
12 | 22:43.72 | 1:06.15 | 102297 | 107261
13 | 23:50.12 | 0:58.45 | 107262 | 111656
14 | 24:48.57 | 1:31.60 | 111657 | 118541
15 | 26:20.42 | 1:09.05 | 118542 | 123721
16 | 27:29.47 | 2:09.35 | 123722 | 133431
17 | 29:39.07 | 1:54.30 | 133432 | 142011
18 | 31:33.37 | 3:43.43 | 142012 | 158779
19 | 35:17.05 | 2:49.10 | 158780 | 171464
20 | 38:06.15 | 1:05.27 | 171465 | 176366
21 | 39:11.42 | 3:29.00 | 176367 | 192041
22 | 42:40.42 | 1:56.43 | 192042 | 200784
23 | 44:37.10 | 1:43.35 | 200785 | 208544
24 | 46:20.45 | 1:34.40 | 208545 | 215634
25 | 47:55.10 | 2:08.02 | 215635 | 225236
Range status and errors
Selected range
Filename C:\temp\Hindemith - Orchestral Music - Dresden PO, Kegel\CD5\Hindemith - Orchestral Music - CD5.wav
Peak level 98.0 %
Extraction speed 2.0 X
Range quality 100.0 %
Test CRC D5C9542D
Copy CRC D5C9542D
Copy OK
No errors occurred
AccurateRip summary
Track 1 accurately ripped (confidence 2) [117897FA] (AR v2)
Track 2 accurately ripped (confidence 2) [E0F729D5] (AR v2)
Track 3 accurately ripped (confidence 2) [A486EB00] (AR v2)
Track 4 accurately ripped (confidence 2) [821CDF11] (AR v2)
Track 5 accurately ripped (confidence 2) [910A1FC2] (AR v2)
Track 6 accurately ripped (confidence 2) [1DC6C2E8] (AR v2)
Track 7 accurately ripped (confidence 2) [F7EB6B4B] (AR v2)
Track 8 accurately ripped (confidence 2) [4C6C2760] (AR v2)
Track 9 accurately ripped (confidence 2) [99D28F47] (AR v2)
Track 10 accurately ripped (confidence 2) [32C8D54E] (AR v2)
Track 11 accurately ripped (confidence 2) [381F402D] (AR v2)
Track 12 accurately ripped (confidence 2) [54773BC2] (AR v2)
Track 13 accurately ripped (confidence 2) [B5737D14] (AR v2)
Track 14 accurately ripped (confidence 2) [4264A038] (AR v2)
Track 15 accurately ripped (confidence 2) [1793F7EE] (AR v2)
Track 16 accurately ripped (confidence 2) [45A6E585] (AR v2)
Track 17 accurately ripped (confidence 2) [6801F899] (AR v2)
Track 18 accurately ripped (confidence 2) [1A36E3E9] (AR v2)
Track 19 accurately ripped (confidence 2) [F45E3C2B] (AR v2)
Track 20 accurately ripped (confidence 2) [D81D5A7E] (AR v2)
Track 21 accurately ripped (confidence 2) [10CF895E] (AR v2)
Track 22 accurately ripped (confidence 2) [F385D0DD] (AR v2)
Track 23 accurately ripped (confidence 2) [A13F9D7B] (AR v2)
Track 24 accurately ripped (confidence 2) [5501D6EA] (AR v2)
Track 25 accurately ripped (confidence 2) [8DF04328] (AR v2)
All tracks accurately ripped
End of status report
==== Log checksum E7C8F20D7A4F2FC194D05E86486E885840B179E5A0D5B8EF96BB0143041D7053 ====



Показать сообщения:    

Текущее время: 07-Дек 17:31

Часовой пояс: UTC + 3


Вы не можете начинать темы
Вы не можете отвечать на сообщения
Вы не можете редактировать свои сообщения
Вы не можете удалять свои сообщения
Вы не можете голосовать в опросах
Вы не можете прикреплять файлы к сообщениям
Вы не можете скачивать файлы