(Orchestral) Ferenc Liszt - Complete Symphonic Poems / Ференц Лист - Полное собрание симфонических поэм (Budapest Symphony Orchestra, Arpad Joo) 5CD - 1994, FLAC (tracks+.cue) lossless


 

[Цитировать]

Ferenc Liszt - Complete Symphonic Poems - Arpad Joó
Жанр: Orchestral
Страна-производитель диска: EU
Год издания диска: 1994
Издатель (лейбл): Hungaroton
Номер по каталогу: HCD12677-81
Дата записи: 1985
Аудиокодек: FLAC
Тип рипа: tracks+.cue
Битрейт аудио: lossless
Продолжительность: 5 CD Box: 4:55:30
Источник: скачано с
Наличие сканов в содержимом раздачи: да
Треклист:
Ferenc Liszt (1811-1886)
CD1
1. Symphonic Poem №1: Ce qu'on entend sur la Montagne ("Bergsymphonie") /Что слышно на горе ("Горная симфония") (по Гюго, 1847-1857) (30:34)
2. Symphonic Poem №2: Tasso: Lamento e trionfo / Тассо: Жалоба и триумф (по Гёте, 1849-1856) (21:31)
3. Symphonic Poem №3: Les préludes / Прелюды (пo Ламартину, 1850-1856) (15:52)
CD2
1. Symphonic Poem №4: Orpheus / Орфей (как вступление к "Орфею" Глюка, 1856) (11:36)
2. Symphonic Poem №5: Prometheus / Прометей (по Гердеру, 1850-1855) (13:29)
3. Symphonic Poem №6: Mazeppa / Мазепа (по Гюго, 1851-1856) (15:54)
4. Symphonic Poem №7: Festklänge / Праздничные звучания (Каролине Витгенштейн, 1853-1861) (19:47)
CD3
1. Symphonic Poem №8: Héroide funebre / Плач о героях (по первой части "Революционной симфонии", 1830-1857) (24:12)
2. Symphonic Poem №9: Hungaria / Венгрия (ответ на патриотическое стихотворение Вёрёшмарти, 1839-1857) (22:22)
3. Symphonic Poem №10: Hamlet / Гамлет (по Шекспиру, 1858-1861) (14:35)
CD4
1. Symphonic Poem №11: Die Hunnenschlacht / Битва Гуннов (по фреске Каульбаха, 1857-1861) (13:58)
2. Symphonic Poem №12: Die Ideale / Идеалы (по Шиллеру, 1857-1858) (26:55)
Symphonic Poem №13: Von der Wiege bis zum Grabe / От колыбели до могилы (по рисунку М.Зичи, 1881-1883)
3. I. Die Wiege / Колыбель (6:31)
4. II. Der Kampf ums Dasein / Борьба за существование (3:14) /
5. III. Zum Grabe: Die Wiege des zukunftigen Lebens / Могила: колыбель будущей жизни (7:38)
CD5
Zwei Episoden aus Lenaus Faust / Два эпизода из "Фауста" Ленау (1857-1866)
1. I. Der nächtliche Zug / Ночное шествие (15:15)
2.II. Der Tanz in der Dorfschenke (Erster Mephisto-Walzer) / Танец в деревенском кабачке (Мефисто-вальс № 1) (11:54)
3. Zweiter Mephisto-Walzer / Мефисто-вальс № 2 (1880-1881) (11:41)
4. Szózat und Hymnus - Fantasie (after Egressy & Erkel) / Воззвание и Венгерский гимн (1873) (10:13)
Исполнители:
Budapest Symphony Orchestra
Árpad Joó, conductor
rec. Budapest 1984-85
"1987 Grand Prix Du Disque”, Paris, France

Лог создания рипа

CD1
Exact Audio Copy V0.99 prebeta 5 from 4. May 2009
EAC extraction logfile from 17. November 2010, 12:35
Franz Liszt / Symphonic poems, Disc 1
Used drive : HL-DT-STDVDRAM GT30N Adapter: 0 ID: 1
Read mode : Secure
Utilize accurate stream : Yes
Defeat audio cache : Yes
Make use of C2 pointers : No
Read offset correction : 103
Overread into Lead-In and Lead-Out : No
Fill up missing offset samples with silence : Yes
Delete leading and trailing silent blocks : No
Null samples used in CRC calculations : No
Used interface : Native Win32 interface for Win NT & 2000
Gap handling : Appended to previous track
Used output format : User Defined Encoder
Selected bitrate : 768 kBit/s
Quality : High
Add ID3 tag : No
Command line compressor : C:\Program Files (x86)\Exact Audio Copy\FLAC\FLAC.EXE
Additional command line options : -V -8 -T "artist=%a" -T "title=%t" -T "album=%g" -T "date=%y" -T "tracknumber=%n" -T "genre=%m" %s
TOC of the extracted CD
Track | Start | Length | Start sector | End sector
---------------------------------------------------------
1 | 0:00.33 | 30:34.02 | 33 | 137584
2 | 30:34.35 | 21:31.73 | 137585 | 234482
3 | 52:06.33 | 15:52.50 | 234483 | 305932
Track 1
Filename C:\EACrips\01. Franz Liszt - Symphonic poems, Disc 1 - Ce qu'on entend sur la montagne.wav
Pre-gap length 0:00:02.33
Peak level 100.0 %
Track quality 100.0 %
Test CRC 520FC89A
Copy CRC 520FC89A
Accurately ripped (confidence 6) [90B42354]
Copy OK
Track 2
Filename C:\EACrips\02. Franz Liszt - Symphonic poems, Disc 1 - Tasso.wav
Pre-gap length 0:00:09.45
Peak level 100.0 %
Track quality 100.0 %
Test CRC F9CCFA78
Copy CRC F9CCFA78
Accurately ripped (confidence 6) [026E272E]
Copy OK
Track 3
Filename C:\EACrips\03. Franz Liszt - Symphonic poems, Disc 1 - Les preludes.wav
Pre-gap length 0:00:09.47
Peak level 100.0 %
Track quality 100.0 %
Test CRC 3D169993
Copy CRC 3D169993
Accurately ripped (confidence 6) [97A99935]
Copy OK
All tracks accurately ripped
No errors occurred
End of status report
CD2
Exact Audio Copy V0.99 prebeta 5 from 4. May 2009
EAC extraction logfile from 17. November 2010, 13:33
Franz Liszt / Symphonic poems, Disc 2
Used drive : HL-DT-STDVDRAM GT30N Adapter: 0 ID: 1
Read mode : Secure
Utilize accurate stream : Yes
Defeat audio cache : Yes
Make use of C2 pointers : No
Read offset correction : 103
Overread into Lead-In and Lead-Out : No
Fill up missing offset samples with silence : Yes
Delete leading and trailing silent blocks : No
Null samples used in CRC calculations : No
Used interface : Native Win32 interface for Win NT & 2000
Gap handling : Appended to previous track
Used output format : User Defined Encoder
Selected bitrate : 768 kBit/s
Quality : High
Add ID3 tag : No
Command line compressor : C:\Program Files (x86)\Exact Audio Copy\FLAC\FLAC.EXE
Additional command line options : -V -8 -T "artist=%a" -T "title=%t" -T "album=%g" -T "date=%y" -T "tracknumber=%n" -T "genre=%m" %s
TOC of the extracted CD
Track | Start | Length | Start sector | End sector
---------------------------------------------------------
1 | 0:00.33 | 11:36.17 | 33 | 52249
2 | 11:36.50 | 13:29.58 | 52250 | 112982
3 | 25:06.33 | 15:54.25 | 112983 | 184557
4 | 41:00.58 | 19:47.42 | 184558 | 273624
Track 1
Filename C:\EACrips\01. Franz Liszt - Symphonic poems, Disc 2 - Orpheus.wav
Pre-gap length 0:00:02.33
Peak level 71.8 %
Track quality 100.0 %
Test CRC BFC1DEC2
Copy CRC BFC1DEC2
Accurately ripped (confidence 6) [DB0C5BD8]
Copy OK
Track 2
Filename C:\EACrips\02. Franz Liszt - Symphonic poems, Disc 2 - Prometheus.wav
Pre-gap length 0:00:07.13
Peak level 85.7 %
Track quality 100.0 %
Test CRC 8C37A74E
Copy CRC 8C37A74E
Accurately ripped (confidence 6) [B88867CB]
Copy OK
Track 3
Filename C:\EACrips\03. Franz Liszt - Symphonic poems, Disc 2 - Mazeppa.wav
Pre-gap length 0:00:07.10
Peak level 100.0 %
Track quality 99.9 %
Test CRC 41743FF9
Copy CRC 41743FF9
Accurately ripped (confidence 6) [8E625A6C]
Copy OK
Track 4
Filename C:\EACrips\04. Franz Liszt - Symphonic poems, Disc 2 - Festklange.wav
Pre-gap length 0:00:07.47
Peak level 79.1 %
Track quality 100.0 %
Test CRC CC98B5D3
Copy CRC CC98B5D3
Accurately ripped (confidence 6) [1017FF48]
Copy OK
All tracks accurately ripped
No errors occurred
End of status report
CD3
Exact Audio Copy V0.99 prebeta 5 from 4. May 2009
EAC extraction logfile from 17. November 2010, 15:47
Franz Liszt / Symphonic poems, Disc 3
Used drive : HL-DT-STDVDRAM GT30N Adapter: 0 ID: 1
Read mode : Secure
Utilize accurate stream : Yes
Defeat audio cache : Yes
Make use of C2 pointers : No
Read offset correction : 103
Overread into Lead-In and Lead-Out : No
Fill up missing offset samples with silence : Yes
Delete leading and trailing silent blocks : No
Null samples used in CRC calculations : No
Used interface : Native Win32 interface for Win NT & 2000
Gap handling : Appended to previous track
Used output format : User Defined Encoder
Selected bitrate : 768 kBit/s
Quality : High
Add ID3 tag : No
Command line compressor : C:\Program Files (x86)\Exact Audio Copy\FLAC\FLAC.EXE
Additional command line options : -V -8 -T "artist=%a" -T "title=%t" -T "album=%g" -T "date=%y" -T "tracknumber=%n" -T "genre=%m" %s
TOC of the extracted CD
Track | Start | Length | Start sector | End sector
---------------------------------------------------------
1 | 0:00.33 | 24:12.02 | 33 | 108934
2 | 24:12.35 | 22:22.40 | 108935 | 209624
3 | 46:35.00 | 14:35.28 | 209625 | 275277
Track 1
Filename C:\EACrips\01. Franz Liszt - Symphonic poems, Disc 3 - Heroide funebre.wav
Pre-gap length 0:00:02.33
Peak level 93.7 %
Track quality 100.0 %
Test CRC 64120A36
Copy CRC 64120A36
Accurately ripped (confidence 6) [5D572F2E]
Copy OK
Track 2
Filename C:\EACrips\02. Franz Liszt - Symphonic poems, Disc 3 - Hungaria.wav
Pre-gap length 0:00:07.45
Peak level 100.0 %
Track quality 99.9 %
Test CRC 30D92F79
Copy CRC 30D92F79
Accurately ripped (confidence 6) [8862218E]
Copy OK
Track 3
Filename C:\EACrips\03. Franz Liszt - Symphonic poems, Disc 3 - Hamlet.wav
Pre-gap length 0:00:06.29
Peak level 74.4 %
Track quality 100.0 %
Test CRC 352F9104
Copy CRC 352F9104
Accurately ripped (confidence 6) [EF78390B]
Copy OK
All tracks accurately ripped
No errors occurred
End of status report
CD4
Exact Audio Copy V0.99 prebeta 5 from 4. May 2009
EAC extraction logfile from 17. November 2010, 16:56
Franz Liszt / Symphonic poems, Disc 4
Used drive : HL-DT-STDVDRAM GT30N Adapter: 0 ID: 1
Read mode : Secure
Utilize accurate stream : Yes
Defeat audio cache : Yes
Make use of C2 pointers : No
Read offset correction : 103
Overread into Lead-In and Lead-Out : No
Fill up missing offset samples with silence : Yes
Delete leading and trailing silent blocks : No
Null samples used in CRC calculations : No
Used interface : Native Win32 interface for Win NT & 2000
Gap handling : Appended to previous track
Used output format : User Defined Encoder
Selected bitrate : 768 kBit/s
Quality : High
Add ID3 tag : No
Command line compressor : C:\Program Files (x86)\Exact Audio Copy\FLAC\FLAC.EXE
Additional command line options : -V -8 -T "artist=%a" -T "title=%t" -T "album=%g" -T "date=%y" -T "tracknumber=%n" -T "genre=%m" %s
TOC of the extracted CD
Track | Start | Length | Start sector | End sector
---------------------------------------------------------
1 | 0:00.33 | 13:58.55 | 33 | 62937
2 | 13:59.13 | 26:55.27 | 62938 | 184089
3 | 40:54.40 | 6:31.13 | 184090 | 213427
4 | 47:25.53 | 3:14.02 | 213428 | 227979
5 | 50:39.55 | 7:38.40 | 227980 | 262369
Track 1
Filename C:\EACrips\01. Franz Liszt - Symphonic poems, Disc 4 - Die Hunnenschlacht.wav
Pre-gap length 0:00:02.33
Peak level 90.9 %
Track quality 100.0 %
Test CRC E075D4D6
Copy CRC E075D4D6
Accurately ripped (confidence 8) [76C42BE2]
Copy OK
Track 2
Filename C:\EACrips\02. Franz Liszt - Symphonic poems, Disc 4 - Die Ideale.wav
Pre-gap length 0:00:06.56
Peak level 88.5 %
Track quality 100.0 %
Test CRC CCCBAB9A
Copy CRC CCCBAB9A
Accurately ripped (confidence 8) [4F60B90B]
Copy OK
Track 3
Filename C:\EACrips\03. Franz Liszt - Symphonic poems, Disc 4 - Von der Wiege bis zum Grabe- Die Wiege.wav
Pre-gap length 0:00:06.47
Peak level 8.4 %
Track quality 99.9 %
Test CRC D7A0F7E2
Copy CRC D7A0F7E2
Accurately ripped (confidence 8) [464C6D51]
Copy OK
Track 4
Filename C:\EACrips\04. Franz Liszt - Symphonic poems, Disc 4 - Von der Wiege bis zum Grabe- Der Kampf ums Dasein.wav
Pre-gap length 0:00:05.13
Peak level 80.2 %
Track quality 100.0 %
Test CRC F42B284D
Copy CRC F42B284D
Accurately ripped (confidence 8) [7B386672]
Copy OK
Track 5
Filename C:\EACrips\05. Franz Liszt - Symphonic poems, Disc 4 - Von der Wiege bis zum Grabe- Zum Grabe- Die Wiege des zukunftigen Lebens.wav
Pre-gap length 0:00:05.49
Peak level 20.7 %
Track quality 100.0 %
Test CRC DF4DEB62
Copy CRC DF4DEB62
Accurately ripped (confidence 8) [916AF682]
Copy OK
All tracks accurately ripped
No errors occurred
End of status report
CD5
Exact Audio Copy V0.99 prebeta 5 from 4. May 2009
EAC extraction logfile from 17. November 2010, 17:57
Franz Liszt / Symphonic poems, Disc 5
Used drive : HL-DT-STDVDRAM GT30N Adapter: 0 ID: 1
Read mode : Secure
Utilize accurate stream : Yes
Defeat audio cache : Yes
Make use of C2 pointers : No
Read offset correction : 103
Overread into Lead-In and Lead-Out : No
Fill up missing offset samples with silence : Yes
Delete leading and trailing silent blocks : No
Null samples used in CRC calculations : No
Used interface : Native Win32 interface for Win NT & 2000
Gap handling : Appended to previous track
Used output format : User Defined Encoder
Selected bitrate : 768 kBit/s
Quality : High
Add ID3 tag : No
Command line compressor : C:\Program Files (x86)\Exact Audio Copy\FLAC\FLAC.EXE
Additional command line options : -V -8 -T "artist=%a" -T "title=%t" -T "album=%g" -T "date=%y" -T "tracknumber=%n" -T "genre=%m" %s
TOC of the extracted CD
Track | Start | Length | Start sector | End sector
---------------------------------------------------------
1 | 0:00.33 | 15:15.65 | 33 | 68722
2 | 15:16.23 | 11:54.62 | 68723 | 122334
3 | 27:11.10 | 11:41.50 | 122335 | 174959
4 | 38:52.60 | 10:13.20 | 174960 | 220954
Track 1
Filename C:\EACrips\01. Franz Liszt - Symphonic poems, Disc 5 - Zwei Episoden aus Lenaus Faust- Der nachtliche Zug.wav
Pre-gap length 0:00:02.33
Peak level 68.9 %
Track quality 100.0 %
Test CRC EC2B80C3
Copy CRC EC2B80C3
Accurately ripped (confidence 7) [ECF64BE2]
Copy OK
Track 2
Filename C:\EACrips\02. Franz Liszt - Symphonic poems, Disc 5 - Zwei Episoden aus Lenaus Faust- Der Tanz in der Dorfschenke (Erster Mephisto-Walzer).wav
Pre-gap length 0:00:08.25
Peak level 75.5 %
Track quality 100.0 %
Test CRC C510A64A
Copy CRC C510A64A
Accurately ripped (confidence 7) [73F530C5]
Copy OK
Track 3
Filename C:\EACrips\03. Franz Liszt - Symphonic poems, Disc 5 - Zweiter Mephisto-Walzer.wav
Pre-gap length 0:00:07.05
Peak level 70.9 %
Track quality 99.9 %
Test CRC C0F388EE
Copy CRC C0F388EE
Accurately ripped (confidence 7) [FC0FF463]
Copy OK
Track 4
Filename C:\EACrips\04. Franz Liszt - Symphonic poems, Disc 5 - Szozat und Hymnus - Fantasie.wav
Pre-gap length 0:00:06.41
Peak level 100.0 %
Track quality 100.0 %
Test CRC D7D46014
Copy CRC D7D46014
Accurately ripped (confidence 7) [4E961554]
Copy OK
All tracks accurately ripped
No errors occurred
End of status report

Содержание индексной карты (.CUE)

CD1
REM DISCID 220FEF03
REM COMMENT "ExactAudioCopy v0.99pb5"
FILE "01. Franz Liszt - Symphonic poems, Disc 1 - Ce qu'on entend sur la montagne.wav" WAVE
TRACK 01 AUDIO
PREGAP 00:00:33
INDEX 01 00:00:00
TRACK 02 AUDIO
INDEX 00 30:24:32
FILE "02. Franz Liszt - Symphonic poems, Disc 1 - Tasso.wav" WAVE
INDEX 01 00:00:00
TRACK 03 AUDIO
INDEX 00 21:22:26
FILE "03. Franz Liszt - Symphonic poems, Disc 1 - Les preludes.wav" WAVE
INDEX 01 00:00:00
CD2
REM DISCID 350E4004
REM COMMENT "ExactAudioCopy v0.99pb5"
FILE "01. Franz Liszt - Symphonic poems, Disc 2 - Orpheus.wav" WAVE
TRACK 01 AUDIO
PREGAP 00:00:33
INDEX 01 00:00:00
TRACK 02 AUDIO
INDEX 00 11:29:04
FILE "02. Franz Liszt - Symphonic poems, Disc 2 - Prometheus.wav" WAVE
INDEX 01 00:00:00
TRACK 03 AUDIO
INDEX 00 13:22:48
FILE "03. Franz Liszt - Symphonic poems, Disc 2 - Mazeppa.wav" WAVE
INDEX 01 00:00:00
TRACK 04 AUDIO
INDEX 00 15:46:53
FILE "04. Franz Liszt - Symphonic poems, Disc 2 - Festklange.wav" WAVE
INDEX 01 00:00:00
CD3
REM DISCID 290E5603
REM COMMENT "ExactAudioCopy v0.99pb5"
FILE "01. Franz Liszt - Symphonic poems, Disc 3 - Heroide funebre.wav" WAVE
TRACK 01 AUDIO
PREGAP 00:00:33
INDEX 01 00:00:00
TRACK 02 AUDIO
INDEX 00 24:04:32
FILE "02. Franz Liszt - Symphonic poems, Disc 3 - Hungaria.wav" WAVE
INDEX 01 00:00:00
TRACK 03 AUDIO
INDEX 00 22:16:11
FILE "03. Franz Liszt - Symphonic poems, Disc 3 - Hamlet.wav" WAVE
INDEX 01 00:00:00
CD4
REM DISCID 3D0DAA05
REM COMMENT "ExactAudioCopy v0.99pb5"
FILE "01. Franz Liszt - Symphonic poems, Disc 4 - Die Hunnenschlacht.wav" WAVE
TRACK 01 AUDIO
PREGAP 00:00:33
INDEX 01 00:00:00
TRACK 02 AUDIO
INDEX 00 13:51:74
FILE "02. Franz Liszt - Symphonic poems, Disc 4 - Die Ideale.wav" WAVE
INDEX 01 00:00:00
TRACK 03 AUDIO
INDEX 00 26:48:55
FILE "03. Franz Liszt - Symphonic poems, Disc 4 - Von der Wiege bis zum Grabe- Die Wiege.wav" WAVE
INDEX 01 00:00:00
TRACK 04 AUDIO
INDEX 00 06:26:00
FILE "04. Franz Liszt - Symphonic poems, Disc 4 - Von der Wiege bis zum Grabe- Der Kampf ums Dasein.wav" WAVE
INDEX 01 00:00:00
TRACK 05 AUDIO
INDEX 00 03:08:28
FILE "05. Franz Liszt - Symphonic poems, Disc 4 - Von der Wiege bis zum Grabe- Zum Grabe- Die Wiege des zukunftigen Lebens.wav" WAVE
INDEX 01 00:00:00
CD5
REM DISCID 2D0B8204
REM COMMENT "ExactAudioCopy v0.99pb5"
FILE "01. Franz Liszt - Symphonic poems, Disc 5 - Zwei Episoden aus Lenaus Faust- Der nachtliche Zug.wav" WAVE
TRACK 01 AUDIO
PREGAP 00:00:33
INDEX 01 00:00:00
TRACK 02 AUDIO
INDEX 00 15:07:40
FILE "02. Franz Liszt - Symphonic poems, Disc 5 - Zwei Episoden aus Lenaus Faust- Der Tanz in der Dorfschenke (Erster Mephisto-Walzer).wav" WAVE
INDEX 01 00:00:00
TRACK 03 AUDIO
INDEX 00 11:47:57
FILE "03. Franz Liszt - Symphonic poems, Disc 5 - Zweiter Mephisto-Walzer.wav" WAVE
INDEX 01 00:00:00
TRACK 04 AUDIO
INDEX 00 11:35:09
FILE "04. Franz Liszt - Symphonic poems, Disc 5 - Szozat und Hymnus - Fantasie.wav" WAVE
INDEX 01 00:00:00
Доп. информация: Венгерский дирижёр Арпад Йоо (р.1948) к 100-летию со дня смерти Ференца Листа записал с Будапештским симфоническим оркестром полное собрание его симфонических поэм, за что получил "Гран-при дю Disque" в Париже, прямо из рук французского министра культуры Леотара и одобрение меломанов. Лист в исполнении будапештцев и Арпада Йоо понравился французам музыкальностью, мягкостью и пластичностью трактовки, отсутствием привычных ошеломляющих "спецэффектов" и искусственного внешнего пафоса. К каноническим 13 симфоническим поэмам в этой записи по обычаю добавлены ещё три программных произведения - "Ночное шествие", "Танец в деревенском кабачке" (Мефисто-вальс № 1) и "Мефисто-вальс № 2".



Показать сообщения:    

Текущее время: 04-Дек 13:12

Часовой пояс: UTC + 3


Вы не можете начинать темы
Вы не можете отвечать на сообщения
Вы не можете редактировать свои сообщения
Вы не можете удалять свои сообщения
Вы не можете голосовать в опросах
Вы не можете прикреплять файлы к сообщениям
Вы не можете скачивать файлы