[TR24][SM][OF] Franz Schubert - Moments Musicaux - Валерий Афанасьев - 2012 [ECM New Series] (Classical)


Статистика раздачи [Обновить пиров]
Размер:  543 MB   |    Зарегистрирован:  8 месяцев 15 дней   |    Скачан:  0 раз

Полного источника не было: Никогда

 
   
 
 
 

[Цитировать]

·
·
·
·
Franz Schubert (1797–1828)Жанр: Keyboard
Носитель: Official Digital Download
Год издания диска: 2012
Издатель(лейбл): © ECM Records GmbH
Продолжительность: 70:56
Наличие сканов в содержимом раздачи: cover & booklet
Контейнер: FLAC (*.flac)
Разрядность: 24/44,1
Количество каналов: 2.0
Формат: tracks
Источник: highresaudio.com
Pелизер: WEB (thanks to the original customer)

New Series 2215

Треклист

Moments musicaux D 780 (op. 94)01 C major : Moderato 05:54
02 A-flat major : Andantino 07:17
03 f minor : Allegro moderato 02:17
04 c-sharp minor : Moderato 05:19
05 f minor : Allegro vivace 02:05
06 A-flat major : Allegretto 07:07
Sonata in D Major D 850 (op. 53)
07 Allegro vivace 09:37
08 Con moto 12:38
09 Scherzo : Allegro vivace 09:29
10 Rondo : Allegro moderato 09:07
Valery Afanassiev piano

Dynamic Range Meter

foobar2000 1.2.6 / Dynamic Range Meter 1.1.1
log date: 2015-06-13 14:59:45
--------------------------------------------------------------------------------
Analyzed: Valery Afanassiev / Franz Schubert: Moments musicaux
--------------------------------------------------------------------------------
DR Peak RMS Duration Track
--------------------------------------------------------------------------------
DR15 -7.08 dB -27.13 dB 5:55 01-Moments musicaux, D 780 (Op. 94): C major: Moderato
DR17 -5.20 dB -31.00 dB 7:17 02-Moments musicaux, D 780 (Op. 94): A-flat major: Andantino
DR15 -7.31 dB -28.21 dB 2:17 03-Moments musicaux, D 780 (Op. 94): f minor: Allegro moderato
DR13 -9.92 dB -28.41 dB 5:20 04-Moments musicaux, D 780 (Op. 94): c-sharp minor: Moderato
DR13 -2.95 dB -20.44 dB 2:05 05-Moments musicaux, D 780 (Op. 94): f minor: Allegro vivace
DR15 -5.55 dB -26.15 dB 6:56 06-Moments musicaux, D 780 (Op. 94): A-flat Major: Allegretto
DR15 -0.49 dB -20.42 dB 9:38 07-Sonata in D Major, D 850 (op. 53): Allegro vivace
DR15 -0.70 dB -23.17 dB 12:38 08-Sonata in D Major, D 850 (op. 53): Con moto
DR15 -0.65 dB -20.76 dB 9:29 09-Sonata in D Major, D 850 (op. 53): Scherzo: Allegro vivace
DR16 -2.67 dB -24.21 dB 9:08 10-Sonata in D Major, D 850 (op. 53): Rondo: Allegro moderato
--------------------------------------------------------------------------------
Number of tracks: 10
Official DR value: DR15
Samplerate: 44100 Hz
Channels: 2
Bits per sample: 24
Bitrate: 1071 kbps
Codec: FLAC
================================================================================
[teatrix.ru].t21458.torrent 
Торрент: Зарегистрирован [ 2016-03-20 12:20 ] · 60D2D20D9CA79C5D42E8B0B0D11451219BCBA86B

Скачать .torrent

Скачать

12 KB

Статус: проверено
Скачан: 0 раз
Размер: 543 MB
terms.php



Быстрый ответ

Имя:

      
Для отправки сообщений необходимо включить JavaScript
Показать сообщения:    

Текущее время: 04-Дек 23:23

Часовой пояс: UTC + 3


Вы можете начинать темы
Вы можете отвечать на сообщения
Вы не можете редактировать свои сообщения
Вы не можете удалять свои сообщения
Вы не можете голосовать в опросах
Вы не можете прикреплять файлы к сообщениям
Вы можете скачивать файлы