Завтрак на траве / Eine murul / Breakfast on the grass (Эрик Алунурм, Микель Реха, Мари-Лиис Ребане, Мари Паккас / Erik Alunurm, Mihkel Reha, Mari Liis Rebane, Mari Pakkas) [2011, Эстония, авторская анимация, WEBRip-AVC]


 

[Цитировать]

Завтрак на траве / Eine murul / Breakfast on the grass
Страна: Эстония
Жанр: авторская анимация
Год выпуска: 2011
Продолжительность: 00:04:30
Перевод: не требуется
Cубтитры: нет
Режиссёры: Эрик Алунурм, Микель Реха, Мари-Лиис Ребане, Мари Паккас / Erik Alunurm, Mihkel Reha, Mari Liis Rebane, Mari Pakkas
Описание: Современная вариация на тему известной картины Эдуарда Мане. В исполнении пьяных бомжей.
Доп. информация: Работа студентов Эстонской академии искусств.
Качество видео: WEBRip-AVC
Формат видео: MP4
Видео: 2501 kbps, 1280х720 (16:9), 25.000 fps, AVC (High@L3.1)
Аудио: 157 kbps, 44.1 kHz, 2 channels, AAC (LC)

MediaInfo

General
Complete name : Eine murul (2011).mp4
Format : MPEG-4
Format profile : Base Media
Codec ID : isom
File size : 85.7 MiB
Duration : 4mn 30s
Overall bit rate mode : Variable
Overall bit rate : 2 660 Kbps
Encoded date : UTC 2012-04-14 18:12:46
Tagged date : UTC 2012-04-15 18:12:47
Video
ID : 1
Format : AVC
Format/Info : Advanced Video Codec
Format profile : High@L3.1
Format settings, CABAC : Yes
Format settings, ReFrames : 4 frames
Codec ID : avc1
Codec ID/Info : Advanced Video Coding
Duration : 4mn 30s
Bit rate : 2 501 Kbps
Maximum bit rate : 6 030 Kbps
Width : 1 280 pixels
Height : 720 pixels
Display aspect ratio : 16:9
Frame rate mode : Constant
Frame rate : 25.000 fps
Color space : YUV
Chroma subsampling : 4:2:0
Bit depth : 8 bits
Scan type : Progressive
Bits/(Pixel*Frame) : 0.109
Stream size : 80.5 MiB (94%)
Writing library : Vimeo Encoder
Encoded date : UTC 2012-04-14 18:12:46
Tagged date : UTC 2012-04-14 18:12:47
Audio
ID : 2
Format : AAC
Format/Info : Advanced Audio Codec
Format profile : LC
Codec ID : 40
Duration : 4mn 30s
Bit rate mode : Variable
Bit rate : 157 Kbps
Maximum bit rate : 260 Kbps
Channel(s) : 2 channels
Channel positions : Front: L R
Sampling rate : 44.1 KHz
Compression mode : Lossy
Stream size : 5.05 MiB (6%)
Encoded date : UTC 2012-04-14 18:12:47
Tagged date : UTC 2012-04-14 18:12:47

Скриншот c названием фильма

Скриншоты




Показать сообщения:    

Текущее время: 05-Дек 19:39

Часовой пояс: UTC + 3


Вы не можете начинать темы
Вы не можете отвечать на сообщения
Вы не можете редактировать свои сообщения
Вы не можете удалять свои сообщения
Вы не можете голосовать в опросах
Вы не можете прикреплять файлы к сообщениям
Вы не можете скачивать файлы