(Orchestral) Ferenc Liszt - Legendes de San Francesco, Cantico del sol di San Francesco d'Assisi / Лист - Францисканские Легенды, Солнечный гимн Св. Франциску Ассизскому (RSO Berlin, Gerd Albrecht) - 1983, FLAC (tracks+.cue) lossless


 

[Цитировать]

Liszt - Legendes de San Francesco, Cantico del sol di San Francesco d'Assisi
Жанр: Orchestral
Страна-производитель диска: Austria
Год издания диска: 1983
Издатель (лейбл): Koch Schwann
Номер по каталогу: 311055
Дата записи: 1982
Аудиокодек: FLAC
Тип рипа: tracks+.cue
Битрейт аудио: lossless
Продолжительность: 35'57
Источник: what.cd (rip by Bohuslav)
Наличие сканов в содержимом раздачи: да
Треклист:
Ferenc Liszt (1811-1886)
Legendes de San Francesco (version orchestrale), S. 113a (1863, pub. 1975 ed. F.G.Zeileis)
1. No. 1. San Francesco di Paola: marchant sur les flots (9:05)
2. No. 2. San Francesco d'Asisi: la predication aux oiseaux (11:55)
3. Cantico del Sol di San Francesco d'Assisi, pour baryton, choeur, orchestre, S. 4/2 (1862 pub. 1881) (14:57)
Исполнители:
Walton Grönroos, baritone
RIAS Kammerchor
Radio-Symphonie-Orchester Berlin
Gerd Albrecht, conductor
rec. oct.-nov. 1982, Jesus-Christus-Kirche, Berlin

Лог проверки качества

AUDIOCHECKER v2.0 beta (build 457) - by Dester - opdester@freemail.hu
~~~~~~~~~~~~~~~~~~~~~~~~~~~~~~~~~~
Started at: пятница, 12. 06. 2015. - 22:15.47
3 files found
1 -===- C:\Music\!Classical\Liszt, Franz - Legenden\01. 001 Saint Francois de Paule marchant sur les flots.flac
Extracted successfully
Conclusion: this track is CDDA with probability 100%
Tempfile successfully deleted.
2 -===- C:\Music\!Classical\Liszt, Franz - Legenden\02. 002 Saint Francois d'Assise La predication aux oiseaux.flac
Extracted successfully
Conclusion: this track is CDDA with probability 100%
Tempfile successfully deleted.
3 -===- C:\Music\!Classical\Liszt, Franz - Legenden\03. Cantico del sol di Francesco d'Assisi.flac
Extracted successfully
Conclusion: this track is CDDA with probability 100%
Tempfile successfully deleted.
Finished at: пятница, 12. 06. 2015. - 22:29.19 (operation time: 0:13.32)

Содержание индексной карты (.CUE)

REM COMMENT "CUETools generated dummy CUE sheet"
PERFORMER "Liszt, Franz:"
TITLE "Liszt: Liszt the Collection; Gronroos/Manner Des Rias KammerChores/RSO Berlin/Albrecht"
REM DATE 1982
REM GENRE "Classical"
FILE "01. 001 Saint Francois de Paule marchant sur les flots.flac" WAVE
TRACK 01 AUDIO
PERFORMER "Liszt, Franz: Two Legendes Orch Ver"
TITLE "001 Saint Francois de Paule marchant sur les flots"
INDEX 01 00:00:00
FILE "02. 002 Saint Francois d'Assise La predication aux oiseaux.flac" WAVE
TRACK 02 AUDIO
PERFORMER "Liszt, Franz: Two Legendes Orch Ver"
TITLE "002 Saint Francois d'Assise: La predication aux oiseaux"
INDEX 01 00:00:00
FILE "03. Cantico del sol di Francesco d'Assisi.flac" WAVE
TRACK 03 AUDIO
PERFORMER "Liszt, Franz:"
TITLE "Cantico del sol di Francesco d'Assisi"
INDEX 01 00:00:00
Доп. информация: "Францисканские легенды" (1863), где Лист подражает игре волн и пению птиц, написаны в необычной для того времени колористической плэнерной манере: композитор здесь выступает практически как предтеча импрессионистов, опираясь на все известные ему звуковые ресурсы, широко и разносторонне используя средства мелодической выразительности и гармонической красочности, чтобы изобразить эти события как можно ярче. Пьесы были оркестрованы Листом, и могли бы стать отличным дополнением к каноническим симфоническим поэмам, но изданы лишь спустя 110 лет - в 1975 году, и их записи до сих пор к сожалению - редкость.

О диске

Живя с 1861г. в Риме, в уединенном монастыре, Лист, увлечённый религией и христианскими песнопениями сочинял произведения преимущественно духовного склада - среди них "Солнечный гимн Святому Франциску Ассизскому" с использованием хорала "In dulci jubilo" (окончательный вариант был завершен в 1881). Там же в Риме Лист сочинил "Легенды", посвящённые двум католическим святым: 1я - Св. Франциск из Паолы, идущий по волнам (пo 35й главе жизнеописания св. Франциска из Паолы и по рисунку Э. Штейнле с использованием в коде мелодии из мужск. хора "Ап den lieiligen Franziskus von Paula"); 2я - Св. Франциск Ассизский, проповедуюший птицам (по 16й главе "Цветочки св. Франциска Ассизского", с цитированием темы из вышеназванного гимна).
В предисловии к изданию "Легенд" Лист изложил их программу :
Когда лодочник на просьбу Франциска из Паоло отказывается перевезти его через Мессинский пролив без оплаты, тот раскидывает на воде свой плащ, всходит на него вместе с двумя монахами, и таким образом переправляется через пролив при полнейшем энтузиазме встречающих его жителей Мессины. Святой Франциск стоит на бушующих водах; они несут его к месту назначения, в соответствии с законом христианской веры, которая управляет силами природы. Его плащ распростёрт под ногами, святой держит его за угол по ветру, как парус, неуклонно взирая при этом на небо, где сияет слово "милосердие". Хоральная тема победно звучит в финальном фортиссимо заглушая рёв и грохот волн.
Однажды идя своей дорогой, Святой Франциск Ассизский поднял глаза и увидел дерево, на котором расселось великое множество птиц. Весьма удивленный, он сказал своим спутникам: "Подождите меня здесь. Я пойду и буду проповедовать моим сестричкам птицам". И все птицы, бывшие на деревьях, расселись вокруг него и слушали, пока Святой Франциск проповедовал им так: "Мои сестрички птицы, вы принадлежите Господу, вашему Создателю, и вы должны воспевать Ему хвалу всегда и везде, ибо Он дал вам свободу летать повсюду. И хотя вы не ткете и не шьете, Он дает вам вдвое и втрое, одевая вас и ваших деток. Две породы из всех вас Он послал в Ковчег Ноев, дабы вы не исчезли из мира. Кроме того Он питает вас, хоть вы никогда не сеете и не пашете. Он дал вам источники и реки, дабы утолить вашу жажду, горы и долины, дабы было вам убежище, и деревья, на которых вы строите гнезда ваши. Ибо ваш Создатель очень любит вас, одаряя столь щедро. Опасайтесь, сестрички мои, греха неблагодарности и всегда стремитесь воздавать хвалу Богу". Когда он сказал эти слова, все птицы открыли клювы, вытянули шеи, раскрыли крылья и склонили головы к земле, стремясь своими движениями и пением выразить Святому Франциску свою радость. И Святой возрадовался вместе с ними. Он был удивлен, видя такое множество птиц, и очарован их разнообразной красотой, их вниманием и доброжелательностью, за что и возблагодарил Создателя. Закончив проповедь, Святой Франциск совершил крестное знамение и дозволил птицам улететь. И все птицы взмыли в воздух, сладостно распевая. И следуя крестному знамению, сотворенному Святым Франциском, они разделились на четыре стаи, образуя крест. Одна полетела на восток, другая отправилась на запад, третья на юг, а четвертая на север. Каждая стая в полете пела чудесные песни.



Показать сообщения:    

Текущее время: 05-Дек 21:37

Часовой пояс: UTC + 3


Вы не можете начинать темы
Вы не можете отвечать на сообщения
Вы не можете редактировать свои сообщения
Вы не можете удалять свои сообщения
Вы не можете голосовать в опросах
Вы не можете прикреплять файлы к сообщениям
Вы не можете скачивать файлы