[TR24][OF] An American in Paris (Original Broadway Cast Recording) by Original Broadway Cast Of An American In Paris (music by George Gershwin, lyrics by Ira Gershwin) - 2015 (Broadway, Modern Classical, Jazz)


Статистика раздачи [Обновить пиров]
Размер:  1.16 GB   |    Зарегистрирован:  8 месяцев 15 дней   |    Скачан:  0 раз

Полного источника не было: Никогда

 
   
 
 
 

[Цитировать]

An American in Paris (Original Broadway Cast Recording)
George Gershwin & Ira Gershwin
- Год издания: 2015
Жанр: Broadway, Modern Classical, Jazz
Издатель: Masterworks Broadway
Продолжительность: 01:07:50
Наличие сканов: Sleeve- -
01. Concerto in F (6:43)
02. I Got Rhythm (4:57)
03. Second Prelude (2:21)
04. I've Got Beginner's Luck (3:43)
05. The Man I Love (1:59)
06. Liza (4:03)
07. 'S Wonderful (3:09)
08. Shall We Dance? (2:10)
09. Second Rhapsody / Cuban Overture (7:56)
10. Entr'acte (1:38)
11. Fidgety Feet (3:35)
12. Who Cares? / For You, For Me, For Evermore (2:34)
13. But Not for Me (2:07)
14. I'll Build a Stairway to Paradise (4:15)
15. An American in Paris (12:44)
16. They Can't Take That Away from Me (2:10)
17. Epilogue (1:45)
-
Контейнер: FLAC (*.flac)
Тип рипа: tracks
Разрядность: 24bit / 88.2kHz
Количество каналов: 2.0
-О релизе
Inspired by the Academy Award-winning film, An American in Paris brings this classic tale to Broadway, for the first time, with music and lyrics by George and Ira Gershwin and a book by Tony and Pulitzer Prize nominee Craig Lucas. The show is directed and choreographed by Olivier Award winner and Artistic Associate of The Royal Ballet, U.K., Christopher Wheeldon. An American in Paris is the romantic story of a young American soldier, a beautiful French girl and an indomitable city, each yearning for a new beginning in the aftermath of World War II. The show had its Broadway premiere on April 12 at The Palace Theater.
The brilliant score for An American in Paris includes many well-known Gershwin classics like "I Got Rhythm," "S Wonderful," "But Not For Me," "Stairway to Paradise," and "They Can't Take That Away From Me," with haunting orchestral music including Concerto in F, Second Prelude, Second Rhapsody and An American in Paris. The score was adapted, arranged and supervised by Rob Fisher with orchestrations by Christopher Austin and musical direction by Brad Haak.

ОтчётыДинамический диапазон

foobar2000 1.2.2 / Dynamic Range Meter 1.1.1
log date: 2015-06-10 20:11:44
--------------------------------------------------------------------------------
Analyzed: An American in Paris Orchestra / An American in Paris (Original Broadway Cast Recording) (1-6)
Brandon Uranowitz / An American in Paris (Original Broadway Cast Recording) (7-9)
Jill Paice / An American in Paris (Original Broadway Cast Recording) (10-11)
Leanne Cope / An American in Paris (Original Broadway Cast Recording) (12)
Max von Essen / An American in Paris (Original Broadway Cast Recording) (13-14)
Robert Fairchild / An American in Paris (Original Broadway Cast Recording) (15-17)
--------------------------------------------------------------------------------
DR Peak RMS Duration Track
--------------------------------------------------------------------------------
DR9 -1.47 dB -16.28 dB 6:43 ?-Concerto in F
DR12 -6.46 dB -24.49 dB 2:21 ?-Second Prelude
DR10 -1.47 dB -15.32 dB 7:56 ?-Second Rhapsody / Cuban Overture
DR9 -1.47 dB -11.47 dB 1:38 ?-Entr'acte
DR10 -1.47 dB -15.06 dB 12:44 ?-An American in Paris
DR10 -1.47 dB -14.59 dB 1:45 ?-Epilogue
DR9 -1.47 dB -14.26 dB 3:09 ?-'S Wonderful
DR12 -4.45 dB -20.27 dB 2:07 ?-But Not for Me
DR12 -1.78 dB -17.63 dB 2:10 ?-They Can't Take That Away from Me
DR13 -1.47 dB -17.63 dB 2:10 ?-Shall We Dance?
DR12 -3.98 dB -19.97 dB 2:34 ?-Who Cares? / For You, For Me, For Evermore
DR11 -5.87 dB -19.91 dB 1:59 ?-The Man I Love
DR9 -1.47 dB -14.67 dB 4:57 ?-I Got Rhythm
DR10 -1.47 dB -14.24 dB 4:15 ?-I'll Build a Stairway to Paradise
DR10 -1.47 dB -15.09 dB 3:43 ?-I've Got Beginner's Luck
DR9 -1.47 dB -14.87 dB 4:03 ?-Liza
DR9 -1.47 dB -13.61 dB 3:35 ?-Fidgety Feet
--------------------------------------------------------------------------------
Number of tracks: 17
Official DR value: DR10
Samplerate: 88200 Hz
Channels: 2
Bits per sample: 24
Bitrate: 2524 kbps
Codec: FLAC
================================================================================

Скриншот спектра частот

Доп. информация

При скачивании, если необходимо, переименуйте папку, в которой будет находиться альбомБольшая просьба к скачавшим поддерживать раздачу! Помогайте другим, ведь вам тоже может понадобиться помощь!Не забываем говорить "Спасибо"!Комментарии приветствуются!
[teatrix.ru].t21461.torrent 
Торрент: Зарегистрирован [ 2016-03-20 12:21 ] · 5A37733E0CD72B96F2D766027B6F2133B0FC4B12

Скачать .torrent

Скачать

14 KB

Статус: проверено
Скачан: 0 раз
Размер: 1.16 GB
terms.php



Быстрый ответ

Имя:

      
Для отправки сообщений необходимо включить JavaScript
Показать сообщения:    

Текущее время: 05-Дек 07:25

Часовой пояс: UTC + 3


Вы можете начинать темы
Вы можете отвечать на сообщения
Вы не можете редактировать свои сообщения
Вы не можете удалять свои сообщения
Вы не можете голосовать в опросах
Вы не можете прикреплять файлы к сообщениям
Вы можете скачивать файлы