(Classical/Chamber) Anton Zimmermann - String Quartets Op. 3 Nos.4 - 6 (ca. 1775) - Musica Aeterna Soloists - 1995, FLAC (image+.cue) lossless


 

[Цитировать]

Anton Zimmermann (1741-1781) - String Quartets Op. 3 Nos.4 - 6 (ca. 1775) - Musica Aeterna Soloists
Жанр: Classical/Chamber
Страна-производитель диска: Italy
Год издания диска: 1995
Издатель (лейбл): Trevak
Номер по каталогу: TREK 4-0016
Аудиокодек: FLAC
Тип рипа: image+.cue
Битрейт аудио: lossless
Продолжительность: 58:59
Источник: релизер
сайт-источник/ник/другое: duckjammy
Наличие сканов в содержимом раздачи: да
Треклист:
String Quartet No. 4 in C Major, Op. 3
1. Thema. Andante Variation 1-5
2. Menuetto. Trio
3. Allegro
4. Menuetto. Trio
5. Finale. Presto
String Quartet No. 5 in D Major, Op. 3
6. Andante molto
7. Menuetto. Trio
8. Scherzo. Allegro
9. Menuetto. Trio
10. Finale. Allegro vivace
String Quartet No. 6 in A Major, Op. 3
11. Andante
12. Menuetto. Trio
13. Scherzo. Allegro
14. Menuetto. Trio
15. Finale
Исполнители:
Musica Aeterna Soloists: Peter Zajнček, Milos Valent, violins; Jan Grener, viola; Peter Kiral, cello

Лог создания рипа

Exact Audio Copy V1.0 beta 3 from 29. August 2011
EAC extraction logfile from 13. June 2015, 13:39
Musica Aeterna Soloists / Zimmerman - String Quartets No.4 - No.6
Used drive : TSSTcorpCDDVDW SE-208DB Adapter: 1 ID: 0
Read mode : Secure
Utilize accurate stream : Yes
Defeat audio cache : Yes
Make use of C2 pointers : No
Read offset correction : 6
Overread into Lead-In and Lead-Out : No
Fill up missing offset samples with silence : Yes
Delete leading and trailing silent blocks : No
Null samples used in CRC calculations : Yes
Used interface : Native Win32 interface for Win NT & 2000
Gap handling : Appended to previous track
Used output format : User Defined Encoder
Selected bitrate : 1024 kBit/s
Quality : High
Add ID3 tag : No
Command line compressor : C:\Program Files (x86)\Exact Audio Copy\FLAC\FLAC.EXE
Additional command line options : -8 -V -T "ARTIST=%artist%" -T "TITLE=%title%" -T "ALBUM=%albumtitle%" -T "DATE=%year%" -T "TRACKNUMBER=%tracknr%" -T "GENRE=%genre%" -T "PERFORMER=%albuminterpret%" -T "COMPOSER=%composer%" %haslyrics%--tag-from-file=LYRICS="%lyricsfile%"%haslyrics% -T "ALBUMARTIST=%albumartist%" -T "DISCNUMBER=%cdnumber%" -T "TOTALDISCS=%totalcds%" -T "TOTALTRACKS=%numduckjammytracks%" -T "COMMENT=%comment%" %source% -o %dest%
TOC of the extracted CD
Track | Start | Length | Start sector | End sector
---------------------------------------------------------
1 | 0:00.00 | 8:17.00 | 0 | 37274
2 | 8:17.00 | 2:31.00 | 37275 | 48599
3 | 10:48.00 | 6:30.00 | 48600 | 77849
4 | 17:18.00 | 3:53.12 | 77850 | 95336
5 | 21:11.12 | 3:24.63 | 95337 | 110699
6 | 24:36.00 | 6:15.00 | 110700 | 138824
7 | 30:51.00 | 3:58.00 | 138825 | 156674
8 | 34:49.00 | 1:23.00 | 156675 | 162899
9 | 36:12.00 | 2:47.00 | 162900 | 175424
10 | 38:59.00 | 3:18.00 | 175425 | 190274
11 | 42:17.00 | 5:19.00 | 190275 | 214199
12 | 47:36.00 | 3:54.00 | 214200 | 231749
13 | 51:30.00 | 2:13.00 | 231750 | 241724
14 | 53:43.00 | 3:46.00 | 241725 | 258674
15 | 57:29.00 | 1:32.00 | 258675 | 265574
Track 1
Filename C:\E\01 - String Quartet No.4 in C, Op.3 No.4 (i - Tema. Andante - Variatio 1-5).wav
Pre-gap length 0:00:02.00
Peak level 81.2 %
Extraction speed 2.6 X
Track quality 99.9 %
Test CRC C1F9B46A
Copy CRC C1F9B46A
Accurately ripped (confidence 1) [A0329BF5] (AR v1)
Copy OK
Track 2
Filename C:\E\02 - String Quartet No.4 in C, Op.3 No.4 (ii - Menuetto).wav
Pre-gap length 0:00:01.00
Peak level 83.1 %
Extraction speed 2.7 X
Track quality 100.0 %
Test CRC 1018478E
Copy CRC 1018478E
Accurately ripped (confidence 1) [834C24E5] (AR v1)
Copy OK
Track 3
Filename C:\E\03 - String Quartet No.4 in C, Op.3 No.4 (iii - Adagio).wav
Pre-gap length 0:00:01.00
Peak level 83.2 %
Extraction speed 3.3 X
Track quality 100.0 %
Test CRC 2FA7CC2D
Copy CRC 2FA7CC2D
Accurately ripped (confidence 1) [16C55FF7] (AR v1)
Copy OK
Track 4
Filename C:\E\04 - String Quartet No.4 in C, Op.3 No.4 (iv - Menuetto).wav
Pre-gap length 0:00:01.00
Peak level 70.7 %
Extraction speed 3.4 X
Track quality 100.0 %
Test CRC 7197A8FA
Copy CRC 7197A8FA
Accurately ripped (confidence 1) [6F188295] (AR v1)
Copy OK
Track 5
Filename C:\E\05 - String Quartet No.4 in C, Op.3 No.4 (v - Finale. Presto).wav
Pre-gap length 0:00:01.00
Peak level 85.0 %
Extraction speed 2.7 X
Track quality 99.9 %
Test CRC 3364308F
Copy CRC 3364308F
Accurately ripped (confidence 1) [3F6D24EF] (AR v1)
Copy OK
Track 6
Filename C:\E\06 - String Quartet No.4 in D, Op.3 No.5 (i - Andante molto).wav
Pre-gap length 0:00:04.66
Peak level 89.3 %
Extraction speed 4.0 X
Track quality 100.0 %
Test CRC 33329447
Copy CRC 33329447
Accurately ripped (confidence 1) [461F36D7] (AR v1)
Copy OK
Track 7
Filename C:\E\07 - String Quartet No.5 in D, Op.3 No.5 (ii - Menuetto).wav
Pre-gap length 0:00:01.00
Peak level 81.4 %
Extraction speed 3.8 X
Track quality 100.0 %
Test CRC 232607C1
Copy CRC 232607C1
Accurately ripped (confidence 1) [C8CF71F3] (AR v1)
Copy OK
Track 8
Filename C:\E\08 - String Quartet No.5 in D, Op.3 No.5 (iii - Scherzo. Allegro).wav
Pre-gap length 0:00:01.00
Peak level 73.9 %
Extraction speed 2.1 X
Track quality 99.8 %
Test CRC 92C062E2
Copy CRC 92C062E2
Accurately ripped (confidence 1) [76ED7B76] (AR v1)
Copy OK
Track 9
Filename C:\E\09 - String Quartet No.5 in D, Op.3 No.5 (iv - Menuetto).wav
Pre-gap length 0:00:01.00
Peak level 65.9 %
Extraction speed 3.1 X
Track quality 99.9 %
Test CRC 0A37CCAB
Copy CRC 0A37CCAB
Accurately ripped (confidence 1) [A0AD4C1E] (AR v1)
Copy OK
Track 10
Filename C:\E\10 - String Quartet No.5 in D, Op.3 No.5 (v - Finale. Allegro vivace).wav
Pre-gap length 0:00:01.00
Peak level 80.2 %
Extraction speed 4.0 X
Track quality 100.0 %
Test CRC 3E3E0E9C
Copy CRC 3E3E0E9C
Accurately ripped (confidence 1) [19EAB5C8] (AR v1)
Copy OK
Track 11
Filename C:\E\11 - String Quartet No.6 in D, Op.3 No.6 (i - Andante).wav
Pre-gap length 0:00:04.65
Peak level 89.7 %
Extraction speed 4.0 X
Track quality 100.0 %
Test CRC 4AE94E0C
Copy CRC 4AE94E0C
Accurately ripped (confidence 1) [8CE3A906] (AR v1)
Copy OK
Track 12
Filename C:\E\12 - String Quartet No.6 in D, Op.3 No.6 (ii - Menuetto).wav
Pre-gap length 0:00:01.00
Peak level 89.7 %
Extraction speed 3.9 X
Track quality 100.0 %
Test CRC F0B8FEAD
Copy CRC F0B8FEAD
Accurately ripped (confidence 1) [BD28F343] (AR v1)
Copy OK
Track 13
Filename C:\E\13 - String Quartet No.6 in D, Op.3 No.6 (iii - Scherzo. Allegro vivace).wav
Pre-gap length 0:00:01.00
Peak level 67.0 %
Extraction speed 4.1 X
Track quality 100.0 %
Test CRC 816A90F1
Copy CRC 816A90F1
Accurately ripped (confidence 1) [75233CD9] (AR v1)
Copy OK
Track 14
Filename C:\E\14 - String Quartet No.6 in D, Op.3 No.6 (iv - Menuetto).wav
Pre-gap length 0:00:01.33
Peak level 78.0 %
Extraction speed 4.6 X
Track quality 100.0 %
Test CRC 5D8599F6
Copy CRC 5D8599F6
Accurately ripped (confidence 1) [F90A5993] (AR v1)
Copy OK
Track 15
Filename C:\E\15 - String Quartet No.6 in D, Op.3 No.6 (v - Finale).wav
Pre-gap length 0:00:01.32
Peak level 78.4 %
Extraction speed 2.6 X
Track quality 99.8 %
Test CRC 62AF4AD4
Copy CRC 62AF4AD4
Accurately ripped (confidence 1) [9517EC9B] (AR v1)
Copy OK
All tracks accurately ripped
No errors occurred
End of status report
==== Log checksum 3738D31E3F1A4030519E329C50A676320B60DEFC983F19EF3E4F1F04B05E49FB ====

Содержание индексной карты (.CUE)

REM GENRE "Chamber Music"
REM DATE 1995
REM DISCID CF0DD50F
REM COMMENT "ExactAudioCopy v1.0b3"
CATALOG 0000000000000
PERFORMER "Musica Aeterna Soloists"
TITLE "Zimmerman - String Quartets No.4 - No.6"
FILE "01 - String Quartet No.4 in C, Op.3 No.4 (i - Tema. Andante - Variatio 1-5).flac" WAVE
TRACK 01 AUDIO
TITLE "String Quartet No.4 in C, Op.3 No.4 (i - Tema. Andante - Variatio 1-5)"
PERFORMER "Musica Aeterna Soloists"
INDEX 01 00:00:00
FILE "02 - String Quartet No.4 in C, Op.3 No.4 (ii - Menuetto).flac" WAVE
TRACK 02 AUDIO
TITLE "String Quartet No.4 in C, Op.3 No.4 (ii - Menuetto)"
PERFORMER "Musica Aeterna Soloists"
INDEX 01 00:00:00
FILE "03 - String Quartet No.4 in C, Op.3 No.4 (iii - Adagio).flac" WAVE
TRACK 03 AUDIO
TITLE "String Quartet No.4 in C, Op.3 No.4 (iii - Adagio)"
PERFORMER "Musica Aeterna Soloists"
INDEX 01 00:00:00
FILE "04 - String Quartet No.4 in C, Op.3 No.4 (iv - Menuetto).flac" WAVE
TRACK 04 AUDIO
TITLE "String Quartet No.4 in C, Op.3 No.4 (iv - Menuetto)"
PERFORMER "Musica Aeterna Soloists"
INDEX 01 00:00:00
FILE "05 - String Quartet No.4 in C, Op.3 No.4 (v - Finale. Presto).flac" WAVE
TRACK 05 AUDIO
TITLE "String Quartet No.4 in C, Op.3 No.4 (v - Finale. Presto)"
PERFORMER "Musica Aeterna Soloists"
INDEX 01 00:00:00
FILE "06 - String Quartet No.4 in D, Op.3 No.5 (i - Andante molto).flac" WAVE
TRACK 06 AUDIO
TITLE "String Quartet No.4 in D, Op.3 No.5 (i - Andante molto)"
PERFORMER "Musica Aeterna Soloists"
INDEX 01 00:00:00
FILE "07 - String Quartet No.5 in D, Op.3 No.5 (ii - Menuetto).flac" WAVE
TRACK 07 AUDIO
TITLE "String Quartet No.5 in D, Op.3 No.5 (ii - Menuetto)"
PERFORMER "Musica Aeterna Soloists"
INDEX 01 00:00:00
FILE "08 - String Quartet No.5 in D, Op.3 No.5 (iii - Scherzo. Allegro).flac" WAVE
TRACK 08 AUDIO
TITLE "String Quartet No.5 in D, Op.3 No.5 (iii - Scherzo. Allegro)"
PERFORMER "Musica Aeterna Soloists"
INDEX 01 00:00:00
FILE "09 - String Quartet No.5 in D, Op.3 No.5 (iv - Menuetto).flac" WAVE
TRACK 09 AUDIO
TITLE "String Quartet No.5 in D, Op.3 No.5 (iv - Menuetto)"
PERFORMER "Musica Aeterna Soloists"
INDEX 01 00:00:00
FILE "10 - String Quartet No.5 in D, Op.3 No.5 (v - Finale. Allegro vivace).flac" WAVE
TRACK 10 AUDIO
TITLE "String Quartet No.5 in D, Op.3 No.5 (v - Finale. Allegro vivace)"
PERFORMER "Musica Aeterna Soloists"
INDEX 01 00:00:00
FILE "11 - String Quartet No.6 in D, Op.3 No.6 (i - Andante).flac" WAVE
TRACK 11 AUDIO
TITLE "String Quartet No.6 in D, Op.3 No.6 (i - Andante)"
PERFORMER "Musica Aeterna Soloists"
INDEX 01 00:00:00
FILE "12 - String Quartet No.6 in D, Op.3 No.6 (ii - Menuetto).flac" WAVE
TRACK 12 AUDIO
TITLE "String Quartet No.6 in D, Op.3 No.6 (ii - Menuetto)"
PERFORMER "Musica Aeterna Soloists"
INDEX 01 00:00:00
FILE "13 - String Quartet No.6 in D, Op.3 No.6 (iii - Scherzo. Allegro vivace).flac" WAVE
TRACK 13 AUDIO
TITLE "String Quartet No.6 in D, Op.3 No.6 (iii - Scherzo. Allegro vivace)"
PERFORMER "Musica Aeterna Soloists"
INDEX 01 00:00:00
FILE "14 - String Quartet No.6 in D, Op.3 No.6 (iv - Menuetto).flac" WAVE
TRACK 14 AUDIO
TITLE "String Quartet No.6 in D, Op.3 No.6 (iv - Menuetto)"
PERFORMER "Musica Aeterna Soloists"
INDEX 01 00:00:00
FILE "15 - String Quartet No.6 in D, Op.3 No.6 (v - Finale).flac" WAVE
TRACK 15 AUDIO
TITLE "String Quartet No.6 in D, Op.3 No.6 (v - Finale)"
PERFORMER "Musica Aeterna Soloists"
INDEX 01 00:00:00



Показать сообщения:    

Текущее время: 09-Дек 22:20

Часовой пояс: UTC + 3


Вы не можете начинать темы
Вы не можете отвечать на сообщения
Вы не можете редактировать свои сообщения
Вы не можете удалять свои сообщения
Вы не можете голосовать в опросах
Вы не можете прикреплять файлы к сообщениям
Вы не можете скачивать файлы