[TR24][SM][OF] Franz Schubert - Andras Schiff - 2015 [ECM New Series] (Classical)


Статистика раздачи [Обновить пиров]
Размер:  1.15 GB   |    Зарегистрирован:  8 месяцев 14 дней   |    Скачан:  1 раз

Полного источника не было: 1 месяц 9 дней

 
   
 
 
 

[Цитировать]

·
·
·
·
Franz Schubert (1797–1828)Жанр: Keyboard
Носитель: Official Digital Download
Год издания диска: 2015
Издатель(лейбл): © ECM Records GmbH
Продолжительность: 02:25:37
Наличие сканов в содержимом раздачи: cover & booklet
Контейнер: FLAC (*.flac)
Разрядность: 24/48
Количество каналов: 2.0
Формат: tracks
Источник: qobuz.com
Pелизер: WEB (thanks to the original customer)

New Series 2425/26

ТреклистI

01 Ungarische Melodie in h-Moll D 81703:32
Sonate in G-Dur D 894 (op.78)
02 Molto moderato e cantabile 15:51
03 Andante 07:11
04 Menuett. Allegro moderato - Trio 04:16
05 Allegretto 09:02
Moments musicaux D 780 (op.94)
06 Moderato in C-Dur 05:32
07 Andantino in As-Dur 05:37
08 Allegro moderato in f-Moll 01:59
09 Moderato in cis-Moll 05:05
10 Allegro vivace in f-Moll 02:16
11 Allegretto in As-Dur 06:49
András Schiff fortepiano
-

Dynamic Range Meter

foobar2000 1.2.6 / Dynamic Range Meter 1.1.1
log date: 2015-06-14 19:17:58
--------------------------------------------------------------------------------
Analyzed: Andras Schiff, Associated Performer, Fortepiano, Main Artist - Franz Schubert, Composer - Public Domain / András Schiff : Franz Schubert
--------------------------------------------------------------------------------
DR Peak RMS Duration Track
--------------------------------------------------------------------------------
DR14 -6.28 dB -26.96 dB 3:32 01-Schubert: Ungarische Melodie in h-moll, D. 817
DR16 -2.44 dB -24.97 dB 15:51 02-Sonate in G-Dur, Op.78, D. 894:Molto moderato e cantabile
DR14 -3.80 dB -26.09 dB 7:11 03-Sonate in G-Dur, Op.78, D. 894:Andante
DR14 -4.84 dB -24.16 dB 4:16 04-Sonate in G-Dur, Op.78, D. 894:Menuett. Allegro moderato – Trio
DR13 -5.09 dB -24.28 dB 9:02 05-Sonate in G-Dur, Op.78, D. 894:Allegretto
DR15 -9.13 dB -29.08 dB 5:32 06-Moments musicaux, Op.94, D. 780:Moderato in C-Dur
DR18 -5.93 dB -30.60 dB 5:37 07-Moments musicaux, Op.94, D. 780:Andantino in As-Dur
DR13 -9.14 dB -28.25 dB 1:59 08-Moments musicaux, Op.94, D. 780:Allegro moderato in f-moll
DR15 -7.36 dB -27.96 dB 5:05 09-Moments musicaux, Op.94, D. 780:Moderato in cis-moll
DR13 -5.03 dB -21.57 dB 2:16 10-Moments musicaux, Op.94, D. 780:Allegro vivace in f-moll
DR17 -5.07 dB -27.91 dB 6:49 11-Moments musicaux, Op.94, D. 780:Allegretto in As-Dur
--------------------------------------------------------------------------------
Number of tracks: 11
Official DR value: DR15
Samplerate: 48000 Hz
Channels: 2
Bits per sample: 24
Bitrate: 1080 kbps
Codec: FLAC
================================================================================

II

12 Allegretto in c-Moll D 91504:56
Vier Impromptus D 935 (op.142)
13 Allegro moderato in f-Moll 10:43
14 Allegretto in As-Dur 05:59
15 Andante in B-Dur 11:06
16 Allegro scherzando in f-Moll 06:39
Sonate in B-Dur D 960
17 Molto moderato 18:34
18 Andante sostenuto 07:49
19 Scherzo. Allegro vivace con delicatezza - Trio 03:59
20 Allegro ma non troppo - Presto 08:42András Schiff fortepiano
-

Dynamic Range Meter

foobar2000 1.2.6 / Dynamic Range Meter 1.1.1
log date: 2015-06-14 19:18:43
--------------------------------------------------------------------------------
Analyzed: Andras Schiff, Associated Performer, Fortepiano, Main Artist - Franz Schubert, Composer - Public Domain / András Schiff : Franz Schubert
--------------------------------------------------------------------------------
DR Peak RMS Duration Track
--------------------------------------------------------------------------------
DR14 -8.04 dB -28.56 dB 4:56 12-Schubert: Allegretto in c-moll, D. 915
DR14 -5.89 dB -25.34 dB 10:43 13-Vier Impromptus, Op.142, D. 935:Allegro moderato in f-moll
DR15 -3.99 dB -26.33 dB 5:59 14-Vier Impromptus, Op.142, D. 935:Allegretto in As-Dur
DR15 -5.44 dB -25.38 dB 11:06 15-Vier Impromptus, Op.142, D. 935:Andante in B-Dur
DR16 -2.79 dB -23.89 dB 6:39 16-Vier Impromptus, Op.142, D. 935:Allegro scherzando in f-moll
DR16 -2.46 dB -25.05 dB 18:34 17-Sonate in B-Dur, D. 960:Molto moderato
DR15 -8.76 dB -29.52 dB 7:49 18-Sonate in B-Dur, D. 960:Andante sostenuto
DR14 -6.53 dB -25.65 dB 3:59 19-Sonate in B-Dur, D. 960:Scherzo. Allegro vivace con delicatezza – Trio
DR14 -3.28 dB -23.32 dB 8:42 20-Sonate in B-Dur, D. 960:Allegro ma non troppo – Presto
--------------------------------------------------------------------------------
Number of tracks: 9
Official DR value: DR15
Samplerate: 48000 Hz
Channels: 2
Bits per sample: 24
Bitrate: 1163 kbps
Codec: FLAC
================================================================================
[teatrix.ru].t21464.torrent 
Торрент: Зарегистрирован [ 2016-03-20 12:21 ] · 9E561D7817D695A2E810483D88D1AF941169B59D

Скачать .torrent

Скачать

14 KB

Статус: проверено
Скачан: 1 раз
Размер: 1.15 GB
terms.php



Быстрый ответ

Имя:

      
Для отправки сообщений необходимо включить JavaScript
Показать сообщения:    

Текущее время: 03-Дек 20:42

Часовой пояс: UTC + 3


Вы можете начинать темы
Вы можете отвечать на сообщения
Вы не можете редактировать свои сообщения
Вы не можете удалять свои сообщения
Вы не можете голосовать в опросах
Вы не можете прикреплять файлы к сообщениям
Вы можете скачивать файлы