Русские в мировой культуре. Юл Бриннер: душа бродяги (Маргарита Куклина) [2014, документальное, биография, SATRip]


Статистика раздачи [Обновить пиров]
Размер:  701 MB   |    Зарегистрирован:  8 месяцев 18 дней   |    Скачан:  0 раз

Полного источника не было: Никогда

 
   
 
 
 

[Цитировать]

Русские в мировой культуре. Юл Бриннер: душа бродяги
Дата/Год выпуска: 2014
Страна: Россия
Жанр: документальное, биография
Продолжительность: 00:40:58
Перевод: Не требуется
Русские субтитры: нет
Режиссер: Маргарита Куклина
Телеканал: Культура
Описание: Рок, сын знаменитого американского актера Юла Бриннера, едет в маленькую швейцарскую деревушку, откуда ведет начало его род. Он собирается принять участие в церемонии переименования площади, которая отныне будет называться в честь Юла Бриннера. По дороге сын вспоминает проведенные с отцом годы. Мало кто знает, что актер, сыгравший главную роль в одном из самых популярных вестернов "Великолепная семерка", родился в России.
Доп. информация: Рип с канала Культура. Остатки логотипа замазаны.
Сэмпл: http://multi-up.com/1053713
качество: SATRip
формат: AVI
Видео: MPEG4, XviD, 720x400 (16:9), 25.000 fps, 2 190 Kbps (0.304 bit/pixel)
Аудио: AC-3, 48.0 KHz, 2 ch, 192 Kbps, CBR

MediaInfo

Общее
Полное имя : K:\Юл Бриннер. Душа бродяги.avi
Формат : AVI
Формат/Информация : Audio Video Interleave
Размер файла : 701 Мбайт
Продолжительность : 40 м.
Общий поток : 2392 Кбит/сек
Название фильма : Юл Бриннер. Душа бродяги (2014)
Программа кодирования : VirtualDubMod 1.5.10.2 (build 2540/release)
Библиотека кодирования : VirtualDubMod build 2540/release
Правообладатель : miha2154
Видео
Идентификатор : 0
Формат : MPEG-4 Visual
Профиль формата : Advanced Simple@L5
Параметр BVOP формата : 1
Параметр QPel формата : Нет
Параметр GMC формата : Без точки перехода
Параметр матрицы формата : Выборочная
Идентификатор кодека : XVID
Идентификатор кодека/Подсказка : XviD
Продолжительность : 40 м.
Битрейт : 2190 Кбит/сек
Ширина : 720 пикселей
Высота : 400 пикселей
Соотношение сторон : 16:9
Частота кадров : 25,000 кадров/сек
Цветовое пространство : YUV
Субдискретизация насыщенности : 4:2:0
Битовая глубина : 8 бит
Тип развёртки : Прогрессивная
Метод сжатия : С потерями
Бит/(Пиксели*Кадры) : 0.304
Размер потока : 642 Мбайт (92%)
Библиотека кодирования : XviD 65
Аудио
Идентификатор : 1
Формат : AC-3
Формат/Информация : Audio Coding 3
Расширение режима : CM (complete main)
Параметр Endianness формата : Big
Идентификатор кодека : 2000
Продолжительность : 40 м.
Вид битрейта : Постоянный
Битрейт : 192 Кбит/сек
Каналы : 2 канала
Расположение каналов : Front: L R
Частота : 48,0 КГц
Битовая глубина : 16 бит
Метод сжатия : С потерями
Размер потока : 56,3 Мбайт (8%)
Выравнивание : Разделение по промежуткам
Продолжительность промежутка : 40 мс. (1,00 видеокадр)
Время предзагрузки промежутка : 500 мс.
[teatrix.ru].t21466.torrent 
Торрент: Зарегистрирован [ 2016-03-20 12:23 ] · F796673C7EF48083E2352A7B8A59DAC63D2AB4BA

Скачать .torrent

Скачать

14 KB

Статус: проверено
Скачан: 0 раз
Размер: 701 MB
terms.php



Быстрый ответ

Имя:

      
Для отправки сообщений необходимо включить JavaScript
Показать сообщения:    

Текущее время: 07-Дек 17:23

Часовой пояс: UTC + 3


Вы можете начинать темы
Вы можете отвечать на сообщения
Вы не можете редактировать свои сообщения
Вы не можете удалять свои сообщения
Вы не можете голосовать в опросах
Вы не можете прикреплять файлы к сообщениям
Вы можете скачивать файлы