(Opera) Meyerbeer - Dinorah, ou "Le pardon de Ploermel" (Cook, du Plessis, Oliver, Jones - Geoffrey Mitchell Choir / Philharmonia Orchestra, Judd) - 1998, APE (image+.cue) lossless


 

[Цитировать]

Giacomo Meyerbeer - Dinorah, ou "Le pardon de Ploermel"
This charming three-act opera was a surprise in 1859 for those critics who thought Meyerbeer capable only of large-scale grand operas.
In fact, it became one of his most popular and enduring works.
The story of the hapless and demented young Dinorah roaming the hills with her goat, Bellah, was a favourite of the diva Adelina Patti.
Жанр: Opera
Страна-производитель диска: UK
Год издания диска: 1998
Издатель (лейбл): Opera Rara
Номер по каталогу: ORC5
Дата записи: 1993
Аудиокодек: APE
Тип рипа: image+.cue
Битрейт аудио: lossless
Продолжительность: 69'33+52'23+42'06
Источник: скачано с
Наличие сканов в содержимом раздачи: да
Треклист:

CD1

1. Act I: Overture - Salve! Sainte Marie (Pilgrims)
2. Act I Scene 1: Le jour radieux (Villagers, Goatherd)
3. Act I Scene 2: Bellah! Ma chevre cherie! (Dinorah)
4. Act I Scene 2: Aria: Dors petite, dors tranquille (Dinorah)
5. Act I Scene 3: Je suis chez moi! Que san Satan les emporte (Corentin)
6. Act I Scene 3: Aria: J'en rougirais, eh bien! Apres! (Corentin)
7. Act I Scene 3: Qui va la? C'etait le vent! (Corentin)
8. Act I Scene 4: Duet: Sonne, sonne, gai sonneur! (Dinorah, Corentin)
9. Act I Scene 5: Hola! He! Vieil Alain! (Hoel, Corentin)
10. Act I Scene 5: O puissante magie! Ivresse de mes sens! (Hoel)
11. Act I Scene 6: Me voici j'ai tarde (Corentin, Hoel)
12. Act I Scene 6: Si tu crois revoir ton pere expirant … (Hoel, Corentin)
13. Act I Scene 6: Duet: Un tresor! (Hoel, Corentin)
14. Act I Scene 6: Trio: Ce tintement que l'on entend (Dinorah, Hoel, Corentin)

CD2

1. Act II Scene 1: Entracte and Chorus: Qu'il est bon, qu'il est bon (Woodcutters, Villagers)
2. Act II Scene 2: Aria: Dites-moi, dites vite; a-t-on vu Dinorah? (Goatherd, Villagers)
3. Act II Scene 3: Aria: Me voici! Me voici! (Dinorah)
4. Act II Scene 3: Ombre legere qui suis mes pas (Dinorah)
5. Act II Scene 4: Arrive! Me voici (Hoel, Corentin)
6. Act II Scene 5: Aria: Ah! Que j'ai froid! (Corentin)
7. Act II Scene 6: C'est toi? Non, je frissonne! (Dinorah, Corentin)
8. Act II Scene 7: Duet: Quand l'heure sonnera (Hoel, Corentin)
9. Act II Scene 7: Tu fremis? Que m'importe! (Hoel, Corentin, Dinorah)
10. Act II Scene 8: Trio: Taisez-vous! (Hoel, Corentin, Dinorah)
11. Act II Scene 8: Trio: De l'oiseau dans le bocage (Dinorah, Hoel, Corentin)

CD3

1. Act III Scene 1: Aria: En chasse, piqueurs adroits! (Huntsman)
2. Act III Scene 1: Aria: Les bles son bons a faucher (Reaper)
3. Act III Scene 1: Duet: Sous les genevriers (Goatherds)
4. Act III Scene 1: Quartet: Bonjour, faucheur! (Huntsman, Reaper, Goatherd, Goatgirl, All)
5. Act III Scene 2: La force m'abandonne (Corentin, Hoel)
6. Act III Scene 4: Aria: Ah! Mon remords te venge (Hoel)
7. Act III Scene 4: Duet: Grand Dieu! Son teint s'anime et se Dinorah, Hoel)
8. Act III Scene 4: Duet: Vois! … regarde ces lieux! (Hoel, Dinorah)
9. Act III Scene 4: Sainte Marie! (Villagers, Dinorah, Corentin)
Исполнители:
Giacomo Meyerbeer - Dinorah, ou "Le pardon de Ploermel"
Opera in Three Acts
Libretto by Jules Barbier, Michael Carré and Giacomo Meyerbeer
Dinorah - Deborah Cook
Hoël - Christian du Plessis
Corentin - Alexander Oliver
Goatherd - Della Jones
Goatgirl - Marilyn Hill Smith
Huntsman - Roderick Earle
Reaper - Ian Caley
Geoffrey Mitchell Choir
Philharmonia Orchestra
James Judd
Sung in French
Synopsis
Time: Nineteenth century
Place: Brittany
Act 1
In the Breton village of Ploërmel
During the annual pilgrimage to the chapel of the Virgin, Dinorah has gone mad because her bridegroom Hoël disappeared following a storm that interrupted their wedding on the same day the previous year. Hoël returns to the village, having discovered the whereabouts of a treasure. He enlists Corentin to help him recover the riches, but not without sinister intent, since according to the legend, the first to touch them will perish.
The Mühldorfers' design for Act 2
Act 2
A mysterious valley
They descend upon the cache where Dinorah also happens to be. From her, Corentin learns about the legend, and later he and Hoël invite each other first to inspect the treasure. During that time, Dinorah, in pursuit of her pet goat, steps on a tree trunk by a river as it is hit by lightning, and falls in the water and is swept away by the current. Hoël having witnessed the scene leaps to her rescue.
Act 3
Hoël admits his love and regrets to Dinorah as she regains consciousness. She recognizes him and regains her sanity. The villagers arrive and sing a hymn of forgiveness and lead the two lovers to the chapel where they will be married.

Лог создания рипа

CD1

Exact Audio Copy V1.0 beta 6 from 9. April 2015
EAC extraction logfile from 10. June 2015, 0:15
Meyerbeer / Dinorah, ou "Le pardon de Ploermel" CD1
Used drive : TSSTcorpCDDVDW SE-208AB Adapter: 1 ID: 1
Read mode : Secure
Utilize accurate stream : Yes
Defeat audio cache : Yes
Make use of C2 pointers : No
Read offset correction : 6
Overread into Lead-In and Lead-Out : No
Fill up missing offset samples with silence : Yes
Delete leading and trailing silent blocks : No
Null samples used in CRC calculations : Yes
Used interface : Native Win32 interface for Win NT & 2000
Used output format : Monkey's Audio Lossless Encoder
Selected bitrate : High Lossless Compression
Quality : High
Add ID3 tag : Yes
Command line compressor : C:\Program Files (x86)\Exact Audio Copy\MAC\MAC.exe
TOC of the extracted CD
Track | Start | Length | Start sector | End sector
---------------------------------------------------------
1 | 0:00.00 | 12:35.67 | 0 | 56691
2 | 12:35.67 | 4:17.28 | 56692 | 75994
3 | 16:53.20 | 3:32.22 | 75995 | 91916
4 | 20:25.42 | 4:38.23 | 91917 | 112789
5 | 25:03.65 | 3:34.15 | 112790 | 128854
6 | 28:38.05 | 2:39.35 | 128855 | 140814
7 | 31:17.40 | 3:16.50 | 140815 | 155564
8 | 34:34.15 | 7:23.12 | 155565 | 188801
9 | 41:57.27 | 3:44.18 | 188802 | 205619
10 | 45:41.45 | 5:56.10 | 205620 | 232329
11 | 51:37.55 | 4:58.45 | 232330 | 254724
12 | 56:36.25 | 4:06.42 | 254725 | 273216
13 | 60:42.67 | 4:24.63 | 273217 | 293079
14 | 65:07.55 | 4:25.20 | 293080 | 312974
Range status and errors
Selected range
Filename D:\EAC\Meyerbeer - Dinorah, ou ''Le pardon de Ploermel'' CD1.wav
Peak level 94.9 %
Extraction speed 5.1 X
Range quality 100.0 %
Test CRC 72DFCA37
Copy CRC 72DFCA37
Copy OK
No errors occurred
AccurateRip summary
Track 1 not present in database
Track 2 not present in database
Track 3 not present in database
Track 4 not present in database
Track 5 not present in database
Track 6 not present in database
Track 7 not present in database
Track 8 not present in database
Track 9 not present in database
Track 10 not present in database
Track 11 not present in database
Track 12 not present in database
Track 13 not present in database
Track 14 not present in database
None of the tracks are present in the AccurateRip database
End of status report
---- CUETools DB Plugin V2.1.6
[CTDB TOCID: SWNCQmG0g7QAGi_v4QcLke2EiJw-] disk not present in database
Submit result: SWNCQmG0g7QAGi_v4QcLke2EiJw- has been uploaded
==== Log checksum 400183AF579D76C448E312671C0E71CF72ED002943F3BC36A8EAA9F69193D3B0 ====

CD2

Exact Audio Copy V1.0 beta 6 from 9. April 2015
EAC extraction logfile from 10. June 2015, 0:26
Meyerbeer / Dinorah, ou "Le pardon de Ploermel" CD2
Used drive : TS8XDVDSTRANSCEND Adapter: 1 ID: 2
Read mode : Secure
Utilize accurate stream : Yes
Defeat audio cache : Yes
Make use of C2 pointers : No
Read offset correction : 6
Overread into Lead-In and Lead-Out : No
Fill up missing offset samples with silence : Yes
Delete leading and trailing silent blocks : No
Null samples used in CRC calculations : Yes
Used interface : Native Win32 interface for Win NT & 2000
Used output format : Monkey's Audio Lossless Encoder
Selected bitrate : High Lossless Compression
Quality : High
Add ID3 tag : Yes
Command line compressor : C:\Program Files (x86)\Exact Audio Copy\MAC\MAC.exe
TOC of the extracted CD
Track | Start | Length | Start sector | End sector
---------------------------------------------------------
1 | 0:00.00 | 4:35.17 | 0 | 20641
2 | 4:35.17 | 6:01.40 | 20642 | 47756
3 | 10:36.57 | 5:19.40 | 47757 | 71721
4 | 15:56.22 | 7:40.08 | 71722 | 106229
5 | 23:36.30 | 2:53.22 | 106230 | 119226
6 | 26:29.52 | 2:36.73 | 119227 | 130999
7 | 29:06.50 | 6:17.72 | 131000 | 159346
8 | 35:24.47 | 6:50.38 | 159347 | 190134
9 | 42:15.10 | 2:35.45 | 190135 | 201804
10 | 44:50.55 | 3:21.32 | 201805 | 216911
11 | 48:12.12 | 4:40.63 | 216912 | 237974
Range status and errors
Selected range
Filename D:\EAC\Meyerbeer - Dinorah, ou ''Le pardon de Ploermel'' CD2.wav
Peak level 85.7 %
Extraction speed 3.2 X
Range quality 100.0 %
Test CRC 91D7ACB7
Copy CRC 91D7ACB7
Copy OK
No errors occurred
AccurateRip summary
Track 1 not present in database
Track 2 not present in database
Track 3 not present in database
Track 4 not present in database
Track 5 not present in database
Track 6 not present in database
Track 7 not present in database
Track 8 not present in database
Track 9 not present in database
Track 10 not present in database
Track 11 not present in database
None of the tracks are present in the AccurateRip database
End of status report
---- CUETools DB Plugin V2.1.6
[CTDB TOCID: arzEjIIWjf4j.2MRKkUwaR9F3Pg-] disk not present in database
Submit result: unrecognized or virtual drive
==== Log checksum 3DE1C98151FEB0B869D869F63D6937771370E4437889962A32F470AB5B6C4D13 ====

CD3

Exact Audio Copy V1.0 beta 6 from 9. April 2015
EAC extraction logfile from 9. June 2015, 23:21
Meyerbeer / Dinorah, ou "Le pardon de Ploermel" CD3
Used drive : TSSTcorpCDDVDW SE-208AB Adapter: 1 ID: 1
Read mode : Secure
Utilize accurate stream : Yes
Defeat audio cache : Yes
Make use of C2 pointers : No
Read offset correction : 6
Overread into Lead-In and Lead-Out : No
Fill up missing offset samples with silence : Yes
Delete leading and trailing silent blocks : No
Null samples used in CRC calculations : Yes
Used interface : Native Win32 interface for Win NT & 2000
Used output format : Monkey's Audio Lossless Encoder
Selected bitrate : High Lossless Compression
Quality : High
Add ID3 tag : Yes
Command line compressor : C:\Program Files (x86)\Exact Audio Copy\MAC\MAC.exe
TOC of the extracted CD
Track | Start | Length | Start sector | End sector
---------------------------------------------------------
1 | 0:00.00 | 4:29.70 | 0 | 20244
2 | 4:29.70 | 2:39.67 | 20245 | 32236
3 | 7:09.62 | 3:19.10 | 32237 | 47171
4 | 10:28.72 | 5:07.35 | 47172 | 70231
5 | 15:36.32 | 3:34.08 | 70232 | 86289
6 | 19:10.40 | 4:28.60 | 86290 | 106449
7 | 23:39.25 | 2:08.67 | 106450 | 116116
8 | 25:48.17 | 8:24.63 | 116117 | 153979
9 | 34:13.05 | 8:52.70 | 153980 | 193949
Range status and errors
Selected range
Filename D:\EAC\Meyerbeer - Dinorah, ou ''Le pardon de Ploermel'' CD3.wav
Peak level 93.8 %
Extraction speed 4.6 X
Range quality 100.0 %
Test CRC E151B7E5
Copy CRC E151B7E5
Copy OK
No errors occurred
AccurateRip summary
Track 1 not present in database
Track 2 not present in database
Track 3 not present in database
Track 4 not present in database
Track 5 not present in database
Track 6 not present in database
Track 7 not present in database
Track 8 not present in database
Track 9 not present in database
None of the tracks are present in the AccurateRip database
End of status report
---- CUETools DB Plugin V2.1.6
[CTDB TOCID: 6Ag8Rnwh1iOnLXugV1TuuIfJ4j0-] disk not present in database
Submit result: 6Ag8Rnwh1iOnLXugV1TuuIfJ4j0- has been uploaded
==== Log checksum 94F27FF2C9A8B77C5EA5E2C6D9145328C9E1999ACBDCD7B6D701B443AAE77B09 ====

Содержание индексной карты (.CUE)

CD1

REM GENRE Opera
REM DATE 1993
REM DISCID D8104D0E
REM COMMENT "ExactAudioCopy v1.0b6"
PERFORMER "Meyerbeer"
TITLE "Dinorah, ou 'Le pardon de Ploermel' CD1"
FILE "Meyerbeer - Dinorah, ou ''Le pardon de Ploermel'' CD1.ape" WAVE
TRACK 01 AUDIO
TITLE "Act I: Overture - Salve! Sainte Marie"
PERFORMER "Meyerbeer"
INDEX 01 00:00:00
TRACK 02 AUDIO
TITLE "Act I Scene 1: Le jour radieux"
PERFORMER "Meyerbeer"
INDEX 01 12:35:67
TRACK 03 AUDIO
TITLE "Act I Scene 2: Bellah! Ma chevre cherie!"
PERFORMER "Meyerbeer"
INDEX 01 16:53:20
TRACK 04 AUDIO
TITLE "Act I Scene 2: Aria: Dors petite, dors tranquille"
PERFORMER "Meyerbeer"
INDEX 01 20:25:42
TRACK 05 AUDIO
TITLE "Act I Scene 3: Je suis chez moi! Que san Satan les emporte"
PERFORMER "Meyerbeer"
INDEX 01 25:03:65
TRACK 06 AUDIO
TITLE "Act I Scene 3: Aria: J'en rougirais, eh bien! Apres!"
PERFORMER "Meyerbeer"
INDEX 01 28:38:05
TRACK 07 AUDIO
TITLE "Act I Scene 3: Qui va la? C'etait le vent!"
PERFORMER "Meyerbeer"
INDEX 01 31:17:40
TRACK 08 AUDIO
TITLE "Act I Scene 4: Duet: Sonne, sonne, gai sonneur!"
PERFORMER "Meyerbeer"
INDEX 01 34:34:15
TRACK 09 AUDIO
TITLE "Act I Scene 5: Hola! He! Vieil Alain!"
PERFORMER "Meyerbeer"
INDEX 01 41:57:27
TRACK 10 AUDIO
TITLE "Act I Scene 5: O puissante magie! Ivresse de mes sens!"
PERFORMER "Meyerbeer"
INDEX 01 45:41:45
TRACK 11 AUDIO
TITLE "Act I Scene 6: Me voici j'ai tarde"
PERFORMER "Meyerbeer"
INDEX 01 51:37:55
TRACK 12 AUDIO
TITLE "Act I Scene 6: Si tu crois revoir ton pere expirant …"
PERFORMER "Meyerbeer"
INDEX 01 56:36:25
TRACK 13 AUDIO
TITLE "Act I Scene 6: Duet: Un tresor!"
PERFORMER "Meyerbeer"
INDEX 01 60:42:67
TRACK 14 AUDIO
TITLE "Act I Scene 6: Trio: Ce tintement que l'on entend"
PERFORMER "Meyerbeer"
INDEX 01 65:07:55

CD2

REM GENRE Opera
REM DATE 1993
REM DISCID B10C650B
REM COMMENT "ExactAudioCopy v1.0b6"
PERFORMER "Meyerbeer "
TITLE "Dinorah, ou 'Le pardon de Ploermel' CD2"
FILE "Meyerbeer - Dinorah, ou ''Le pardon de Ploermel'' CD2.ape" WAVE
TRACK 01 AUDIO
TITLE "Act II Scene 1: Entracte and Chorus: Qu'il est bon, qu'il est bon"
PERFORMER "Meyerbeer "
INDEX 01 00:00:00
TRACK 02 AUDIO
TITLE "Act II Scene 2: Aria: Dites-moi, dites vite; a-t-on vu Dinorah?"
PERFORMER "Meyerbeer "
INDEX 01 04:35:17
TRACK 03 AUDIO
TITLE "Act II Scene 3: Aria: Me voici! Me voici!"
PERFORMER "Meyerbeer "
INDEX 01 10:36:57
TRACK 04 AUDIO
TITLE "Act II Scene 3: Ombre legere qui suis mes pas"
PERFORMER "Meyerbeer "
INDEX 01 15:56:22
TRACK 05 AUDIO
TITLE "Act II Scene 4: Arrive! Me voici"
PERFORMER "Meyerbeer "
INDEX 01 23:36:30
TRACK 06 AUDIO
TITLE "Act II Scene 5: Aria: Ah! Que j'ai froid!"
PERFORMER "Meyerbeer "
INDEX 01 26:29:52
TRACK 07 AUDIO
TITLE "Act II Scene 6: C'est toi? Non, je frissonne!"
PERFORMER "Meyerbeer "
INDEX 01 29:06:50
TRACK 08 AUDIO
TITLE "Act II Scene 7: Duet: Quand l'heure sonnera"
PERFORMER "Meyerbeer "
INDEX 01 35:24:47
TRACK 09 AUDIO
TITLE "Act II Scene 7: Tu fremis? Que m'importe!"
PERFORMER "Meyerbeer "
INDEX 01 42:15:10
TRACK 10 AUDIO
TITLE "Act II Scene 8: Trio: Taisez-vous!"
PERFORMER "Meyerbeer "
INDEX 01 44:50:55
TRACK 11 AUDIO
TITLE "Act II Scene 8: Trio: De l'oiseau dans le bocage"
PERFORMER "Meyerbeer "
INDEX 01 48:12:12

CD3

REM GENRE Opera
REM DATE 1993
REM DISCID 590A1A09
REM COMMENT "ExactAudioCopy v1.0b6"
PERFORMER "Meyerbeer "
TITLE "Dinorah, ou 'Le pardon de Ploermel' CD3"
FILE "Meyerbeer - Dinorah, ou ''Le pardon de Ploermel'' CD3.ape" WAVE
TRACK 01 AUDIO
TITLE "Act III Scene 1: Aria: En chasse, piqueurs adroits!"
PERFORMER "Meyerbeer "
INDEX 01 00:00:00
TRACK 02 AUDIO
TITLE "Act III Scene 1: Aria: Les bles son bons a faucher"
PERFORMER "Meyerbeer "
INDEX 01 04:29:70
TRACK 03 AUDIO
TITLE "Act III Scene 1: Duet: Sous les genevriers"
PERFORMER "Meyerbeer "
INDEX 01 07:09:62
TRACK 04 AUDIO
TITLE "Act III Scene 1: Quartet: Bonjour, faucheur!"
PERFORMER "Meyerbeer "
INDEX 01 10:28:72
TRACK 05 AUDIO
TITLE "Act III Scene 2: La force m'abandonne"
PERFORMER "Meyerbeer "
INDEX 01 15:36:32
TRACK 06 AUDIO
TITLE "Act III Scene 4: Aria: Ah! Mon remords te venge"
PERFORMER "Meyerbeer "
INDEX 01 19:10:40
TRACK 07 AUDIO
TITLE "Act III Scene 4: Duet: Grand Dieu! Son teint s'anime et se Dinorah"
PERFORMER "Meyerbeer "
INDEX 01 23:39:25
TRACK 08 AUDIO
TITLE "Act III Scene 4: Duet: Vois! … regarde ces lieux!"
PERFORMER "Meyerbeer "
INDEX 01 25:48:17
TRACK 09 AUDIO
TITLE "Act III Scene 4: Sainte Marie!"
PERFORMER "Meyerbeer "
INDEX 01 34:13:05



Показать сообщения:    

Текущее время: 09-Дек 14:36

Часовой пояс: UTC + 3


Вы не можете начинать темы
Вы не можете отвечать на сообщения
Вы не можете редактировать свои сообщения
Вы не можете удалять свои сообщения
Вы не можете голосовать в опросах
Вы не можете прикреплять файлы к сообщениям
Вы не можете скачивать файлы