И дольше века. Анни Жирардо (Владимир Молчанов. Лиля Сендецкая) [2002, Документальный, Биография, VHSRip]


Статистика раздачи [Обновить пиров]
Размер:  387 MB   |    Зарегистрирован:  8 месяцев 22 дня   |    Скачан:  0 раз

Полного источника не было: Никогда

 
   
 
 
 

[Цитировать]

И дольше века. Анни Жирардо
Дата/Год выпуска: 2002
Страна: Россия
Жанр: Документальный. Биография.
Продолжительность: 00:38:06
Перевод: Не требуется
Русские субтитры: нет
Оригинальная аудиодорожка: русский
Режиссер: Владимир Молчанов. Лиля Сендецкая
Телеканал: Россия 1
Описание:
Фильм о жизни и творчестве французской актрисы театра и кино Анни Жирардо.
Полное имя Анни Сюзанн Жирардо. Она родилась 25 октября 1931 в Париже, и в детстве всегда хотела стать, как её мать акушеркой. В 1954 окончила Консерваторию драматического искусства и с 1954 по 1957 играла на сцене "Комеди Франсез". В кино дебютировала в фильме режиссера А.Юнебеля Тринадцать за столом, 1955 год.
В 1950-х годах сыграла около дюжины ролей в коммерческих лентах разного жанра (Человек с золотым ключом – L'homme aux clefs d'or, 1956; Мегрэ расставляет сети – Maigret tend un piege, 1958; Пустыня Пигаль – Le Desert de Pigalle, 1960), в основном запутавшихся в жизни женщин с темным прошлым. Настоящий перелом в ее творческой судьбе произошел после встречи с итальянским режиссером Л. Висконти.
Она играет как сложные психологические образы, так и комедийные персонажи. Ее излюбленными героинями становятся подсвеченные доброй улыбкой средние француженки за порогом сорока лет – умные, практичные, независимые, но в глубине души страдающие от недостатка мужского внимания и черствости окружающих. Анни всегда считала себя оптимисткой и приучила других видеть в ней сильную и уверенную в себе женщину.
Как сейчас складывается жизнь французской актрисы? Зрители услышат откровенный рассказ самой Анни Жирардо.
Доп. информация: Релиз
Большое спасибо за предоставленную видеокассету yanina.tet
Оцифровка кассеты Urasiko
Сэмпл: http://multi-up.com/1053770
качество: VHSRip
формат: AVI
Видео: DivX Codec 5, 720x576 (1.25:1), 25 fps, 1283 kbps avg
Аудио: MP3, 48 KHz, 128 Kbps, 2 channels

MediaInfo

General
Complete name : F:\Жирардо (Молчанов РТР 2002).avi
Format : AVI
Format/Info : Audio Video Interleave
File size : 387 MiB
Duration : 38mn 6s
Overall bit rate : 1 421 Kbps
Writing application : VirtualDubMod 1.5.4.1 (build 2178/release)
Writing library : VirtualDubMod build 2178/release
Video
ID : 0
Format : MPEG-4 Visual
Format profile : Simple@L1
Format settings, BVOP : No
Format settings, QPel : No
Format settings, GMC : No warppoints
Format settings, Matrix : Default (H.263)
Codec ID : DX50
Codec ID/Hint : DivX 5
Duration : 38mn 6s
Bit rate : 1 283 Kbps
Width : 720 pixels
Height : 576 pixels
Display aspect ratio : 5:4
Frame rate : 25.000 fps
Standard : PAL
Color space : YUV
Chroma subsampling : 4:2:0
Bit depth : 8 bits
Scan type : Interlaced
Scan order : Top Field First
Compression mode : Lossy
Bits/(Pixel*Frame) : 0.124
Stream size : 350 MiB (90%)
Writing library : Lavc52.30.1
Audio
ID : 1
Format : MPEG Audio
Format version : Version 1
Format profile : Layer 3
Mode : Joint stereo
Mode extension : MS Stereo
Codec ID : 55
Codec ID/Hint : MP3
Duration : 38mn 5s
Bit rate mode : Constant
Bit rate : 128 Kbps
Channel(s) : 2 channels
Sampling rate : 48.0 KHz
Compression mode : Lossy
Stream size : 34.9 MiB (9%)
Alignment : Split accross interleaves
Interleave, duration : 40 ms (1.00 video frame)
Interleave, preload duration : 500 ms

Скриншоты

[teatrix.ru].t21469.torrent 
Торрент: Зарегистрирован [ 2016-03-20 12:22 ] · A8BEFBDD4A663A3100E97E64270BE03C340B3ECC

Скачать .torrent

Скачать

16 KB

Статус: проверено
Скачан: 0 раз
Размер: 387 MB
terms.php



Быстрый ответ

Имя:

      
Для отправки сообщений необходимо включить JavaScript
Показать сообщения:    

Текущее время: 11-Дек 16:52

Часовой пояс: UTC + 3


Вы можете начинать темы
Вы можете отвечать на сообщения
Вы не можете редактировать свои сообщения
Вы не можете удалять свои сообщения
Вы не можете голосовать в опросах
Вы не можете прикреплять файлы к сообщениям
Вы можете скачивать файлы