(Orchestral, Impressionism) Arthur Meulemans - Plinys' Fountein, Symphonies 2 & 3 'Pines', May night / Артур Мёлеманс - Фонтан Плиния, Симфонии 2 & 3 (Moscow Symphony Orchestra, Frederic Devreese) - 1995, FLAC (tracks+.cue) lossless


 

[Цитировать]

Arthur Meulemans - Plinys' Fountein, Symphonies 2 & 3, May night
Жанр: Orchestral, Impressionism
Страна-производитель диска: EU
Год издания диска: 1995
Издатель (лейбл): Marco Polo
Номер по каталогу: 8.223776
Серия: Anthology of Flemish Music
Дата записи: 1994
Аудиокодек: FLAC
Тип рипа: tracks+.cue
Битрейт аудио: lossless
Продолжительность: 68'12
Источник: скачано с
Наличие сканов в содержимом раздачи: да
Треклист:
Arthur Meulemans (1884-1966)
Plinys' Fountein, 3 symphonic sketches (1913)
1 Summer Morning at Pliny's Fountain 6:47
2 At Twilight 9:42
3 Night Festival 3:54
Symphony No.2 in ut (1933)
I. Largamente - Allegro
II. Adagio
III. Scherzo: Allegro vivace
IV. Allegro brillante
Symphony No.3 "Pines Symphony" (1933)
I. Andate sostenuto - Allegro ma non troppo
II. Andante
III. Scherzo: Allegro vivo
IV. Finale: Maestoso
12. May Night (1912)
Исполнители:
Moscow Symphony Orchestra
Frédéric Devreese, conductor
rec. oct. 1994, Mosfilm studio, Moscow, Russia

Лог создания рипа

Exact Audio Copy V1.0 beta 3 from 29. August 2011
EAC extraction logfile from 1. October 2014, 2:26
Moscow Symphony Orchestra - Frédéric Devreese / Symphonies No.2 & No.3 - Pliny's Fountain - May Night
Used drive : MATSHITABD-MLT SW-4583 Adapter: 1 ID: 1
Read mode : Burst
Read offset correction : 102
Overread into Lead-In and Lead-Out : No
Fill up missing offset samples with silence : Yes
Delete leading and trailing silent blocks : No
Null samples used in CRC calculations : Yes
Used interface : Native Win32 interface for Win NT & 2000
Gap handling : Appended to previous track
Used output format : User Defined Encoder
Selected bitrate : 128 kBit/s
Quality : High
Add ID3 tag : No
Command line compressor : C:\Program Files (x86)\Exact Audio Copy\Flac\flac.exe
Additional command line options : -8 -V -T "ARTIST=%artist%" -T "TITLE=%title%" -T "ALBUM=%albumtitle%" -T "DATE=%year%" -T "TRACKNUMBER=%tracknr%" -T "GENRE=%genre%" -T "PERFORMER=%albuminterpret%" -T "COMPOSER=%composer%" %haslyrics%--tag-from-file=LYRICS="%lyricsfile%"%haslyrics% -T "ALBUMARTIST=%albumartist%" -T "DISCNUMBER=%cdnumber%" -T "TOTALDISCS=%totalcds%" -T "TOTALTRACKS=%numtracks%" -T "COMMENT=%comment%" %source% -o %dest%
TOC of the extracted CD
Track | Start | Length | Start sector | End sector
---------------------------------------------------------
1 | 0:00.00 | 6:47.15 | 0 | 30539
2 | 6:47.15 | 9:42.15 | 30540 | 74204
3 | 16:29.30 | 3:53.67 | 74205 | 91746
4 | 20:23.22 | 5:47.03 | 91747 | 117774
5 | 26:10.25 | 5:43.40 | 117775 | 143539
6 | 31:53.65 | 2:30.72 | 143540 | 154861
7 | 34:24.62 | 3:41.55 | 154862 | 171491
8 | 38:06.42 | 5:29.08 | 171492 | 196174
9 | 43:35.50 | 4:29.25 | 196175 | 216374
10 | 48:05.00 | 4:13.45 | 216375 | 235394
11 | 52:18.45 | 3:58.15 | 235395 | 253259
12 | 56:16.60 | 11:53.72 | 253260 | 306806
Track 1
Filename D:\__cdrips\01 - Pliny's Fountain - Moderato - Summer Morning.wav
Pre-gap length 0:00:02.00
Peak level 83.7 %
Extraction speed 11.7 X
Test CRC FAFBC976
Copy CRC FAFBC976
Accurately ripped (confidence 1) [330A9896] (AR v2)
Copy OK
Track 2
Filename D:\__cdrips\02 - Pliny's Fountain - Poco con moto - At Twilight.wav
Peak level 27.4 %
Extraction speed 14.0 X
Test CRC BF4428BB
Copy CRC BF4428BB
Accurately ripped (confidence 2) [6DE70801] (AR v2)
Copy OK
Track 3
Filename D:\__cdrips\03 - Pliny's Fountain - Allegro - Night Festival.wav
Peak level 94.8 %
Extraction speed 15.7 X
Test CRC 6A3C2C09
Copy CRC 6A3C2C09
Accurately ripped (confidence 2) [3B6A0753] (AR v2)
Copy OK
Track 4
Filename D:\__cdrips\04 - Sym No.2 - Largamente - Allegro.wav
Pre-gap length 0:00:02.30
Peak level 70.5 %
Extraction speed 16.8 X
Test CRC A5E98D3A
Copy CRC A5E98D3A
Accurately ripped (confidence 2) [68935370] (AR v2)
Copy OK
Track 5
Filename D:\__cdrips\05 - Sym No.2 - Adagio.wav
Pre-gap length 0:00:01.34
Peak level 20.2 %
Extraction speed 18.0 X
Test CRC 5BED5F24
Copy CRC 5BED5F24
Accurately ripped (confidence 2) [1575A51F] (AR v2)
Copy OK
Track 6
Filename D:\__cdrips\06 - Sym No.2 - Scherzo - Allegro vivace.wav
Peak level 72.2 %
Extraction speed 18.7 X
Test CRC AE573A25
Copy CRC AE573A25
Accurately ripped (confidence 2) [34710BBD] (AR v2)
Copy OK
Track 7
Filename D:\__cdrips\07 - Sym No.2 - Allegro brillante.wav
Peak level 95.0 %
Extraction speed 19.4 X
Test CRC 158C51E3
Copy CRC 158C51E3
Accurately ripped (confidence 2) [0C7849EA] (AR v2)
Copy OK
Track 8
Filename D:\__cdrips\08 - Sym No.3 - Andante sostenuto - Allegro ma non troppo.wav
Pre-gap length 0:00:01.42
Peak level 70.6 %
Extraction speed 20.2 X
Test CRC 94E15683
Copy CRC 94E15683
Accurately ripped (confidence 2) [A964CA0C] (AR v2)
Copy OK
Track 9
Filename D:\__cdrips\09 - Sym No.3 - Andante.wav
Peak level 10.7 %
Extraction speed 21.1 X
Test CRC 6F330301
Copy CRC 6F330301
Accurately ripped (confidence 2) [FFE41B20] (AR v2)
Copy OK
Track 10
Filename D:\__cdrips\10 - Sym No.3 - Scherzo - Allegro vivo.wav
Peak level 69.3 %
Extraction speed 21.8 X
Test CRC 767A44B6
Copy CRC 767A44B6
Accurately ripped (confidence 2) [4277492D] (AR v2)
Copy OK
Track 11
Filename D:\__cdrips\11 - Sym No.3 - Finale - Maesto.wav
Peak level 92.3 %
Extraction speed 22.5 X
Test CRC C50DE8F4
Copy CRC C50DE8F4
Accurately ripped (confidence 2) [9FEB98F9] (AR v2)
Copy OK
Track 12
Filename D:\__cdrips\12 - May Night.wav
Pre-gap length 0:00:01.45
Peak level 67.3 %
Extraction speed 23.9 X
Test CRC FB4ED209
Copy CRC FB4ED209
Accurately ripped (confidence 2) [0C20E946] (AR v2)
Copy OK
All tracks accurately ripped
No errors occurred
End of status report
==== Log checksum 9A93AA14ABECC2FCC753DF4C7CEA8DF724706553A7C10537697E510E9161A586 ====

Содержание индексной карты (.CUE)

REM GENRE Classical
REM DATE 1994
REM DISCID B30FFA0C
REM COMMENT "ExactAudioCopy v1.0b3"
PERFORMER "Moscow Symphony Orchestra - Frйdйric Devreese"
TITLE "Symphonies No.2 & No.3 - Pliny's Fountain - May Night"
FILE "01 - Pliny's Fountain - Moderato - Summer Morning.wav" WAVE
TRACK 01 AUDIO
TITLE "Pliny's Fountain - Moderato - Summer Morning"
PERFORMER "Moscow Symphony Orchestra - Frйdйric Devreese"
INDEX 01 00:00:00
FILE "02 - Pliny's Fountain - Poco con moto - At Twilight.wav" WAVE
TRACK 02 AUDIO
TITLE "Pliny's Fountain - Poco con moto - At Twilight"
PERFORMER "Moscow Symphony Orchestra - Frйdйric Devreese"
INDEX 01 00:00:00
FILE "03 - Pliny's Fountain - Allegro - Night Festival.wav" WAVE
TRACK 03 AUDIO
TITLE "Pliny's Fountain - Allegro - Night Festival"
PERFORMER "Moscow Symphony Orchestra - Frйdйric Devreese"
INDEX 01 00:00:00
TRACK 04 AUDIO
TITLE "Sym No.2 - Largamente - Allegro"
PERFORMER "Moscow Symphony Orchestra - Frйdйric Devreese"
INDEX 00 03:51:37
FILE "04 - Sym No.2 - Largamente - Allegro.wav" WAVE
INDEX 01 00:00:00
TRACK 05 AUDIO
TITLE "Sym No.2 - Adagio"
PERFORMER "Moscow Symphony Orchestra - Frйdйric Devreese"
INDEX 00 05:45:44
FILE "05 - Sym No.2 - Adagio.wav" WAVE
INDEX 01 00:00:00
FILE "06 - Sym No.2 - Scherzo - Allegro vivace.wav" WAVE
TRACK 06 AUDIO
TITLE "Sym No.2 - Scherzo - Allegro vivace"
PERFORMER "Moscow Symphony Orchestra - Frйdйric Devreese"
INDEX 01 00:00:00
FILE "07 - Sym No.2 - Allegro brillante.wav" WAVE
TRACK 07 AUDIO
TITLE "Sym No.2 - Allegro brillante"
PERFORMER "Moscow Symphony Orchestra - Frйdйric Devreese"
INDEX 01 00:00:00
TRACK 08 AUDIO
TITLE "Sym No.3 - Andante sostenuto - Allegro ma non troppo"
PERFORMER "Moscow Symphony Orchestra - Frйdйric Devreese"
INDEX 00 03:40:13
FILE "08 - Sym No.3 - Andante sostenuto - Allegro ma non troppo.wav" WAVE
INDEX 01 00:00:00
FILE "09 - Sym No.3 - Andante.wav" WAVE
TRACK 09 AUDIO
TITLE "Sym No.3 - Andante"
PERFORMER "Moscow Symphony Orchestra - Frйdйric Devreese"
INDEX 01 00:00:00
FILE "10 - Sym No.3 - Scherzo - Allegro vivo.wav" WAVE
TRACK 10 AUDIO
TITLE "Sym No.3 - Scherzo - Allegro vivo"
PERFORMER "Moscow Symphony Orchestra - Frйdйric Devreese"
INDEX 01 00:00:00
FILE "11 - Sym No.3 - Finale - Maesto.wav" WAVE
TRACK 11 AUDIO
TITLE "Sym No.3 - Finale - Maesto"
PERFORMER "Moscow Symphony Orchestra - Frйdйric Devreese"
INDEX 01 00:00:00
TRACK 12 AUDIO
TITLE "May Night"
PERFORMER "Moscow Symphony Orchestra - Frйdйric Devreese"
INDEX 00 03:56:45
FILE "12 - May Night.wav" WAVE
INDEX 01 00:00:00
Доп. информация: Артур Мёлеманс (1884-1966) - бельгийский композитор-импрессионист, дирижер, президент Фламандской академии науки и искусства. Всемирную славу ему принесли три симфонических эскиза "Фонтан Плиния" - 1913г. (навеянные достопримечательностями старинного города Тонгерена, известного ещё со времён, когда Бельгия входила в Великую Римскую Империю). Интересно, что написаны они на три года раньше, чем "Фонтаны" Респиги. Другое его популярное сочинение - Третья симфония "Ели" (1933) c характерным названием частей (1. Лунная ночь, 2. Ели тихо шумят в таинственном одиночестве, 3. Полночь - танец фей и эльфов, 4. Утро - яркий свет над елями) - видимо ответ на "Пинии Рима". Импрессионизм Мёлеманса - романтического типа, сочетающий гармоническую изысканность и оркестровую красочность с системой лейтмотивов и фламандской полифонией.



Показать сообщения:    

Текущее время: 20-Янв 16:55

Часовой пояс: UTC + 3


Вы не можете начинать темы
Вы не можете отвечать на сообщения
Вы не можете редактировать свои сообщения
Вы не можете удалять свои сообщения
Вы не можете голосовать в опросах
Вы не можете прикреплять файлы к сообщениям
Вы не можете скачивать файлы