[TR24][OF] Diana Damrau - Fiamma del Belcanto (Soprano Operatic Arias by Donizetti, Bellini, Verdi, Puccini, Leoncavallo) - 2015 (Opera, Vocal)


Статистика раздачи [Обновить пиров]
Размер:  1.48 GB   |    Зарегистрирован:  8 месяцев 21 день   |    Скачан:  0 раз

Полного источника не было: Никогда

 
   
 
 
 

[Цитировать]

Diana Damrau - Fiamma del Belcanto
Формат записи/Источник записи: [TR24][OF]
Наличие водяных знаков: Нет
Год издания/переиздания диска: 2015
Жанр: Opera, Vocal
Издатель(лейбл): Erato, Warner Classics
Продолжительность: 01:18:38
Исполнители:
Diana Damrau, soprano,
Nicole Brandolino, soprano (7-9),
Nicolas Testé, bass (19, 21-22),
Piotr Beczała, tenor (18),
Gianandrea Noseda, Conductor,
Orchestra of Teatro Regio di Torino.
Recorded on September 8, 2014 - September 13, 2014 at the Main Hall, Teatro Regio Torino.
Контейнер: FLAC (*.flac)
Тип рипа: tracks
Разрядность: 24/96
Количество каналов: 2.0
Источник: qobuz

Треклист

Gaetano Donizetti - Rosmonda d'Inghilterra: Act I:
1. "Ancor non giunse" (Rosmonda)
2. "Perche non ho del vento" (Rosmonda)
3. "Torna, torna, o caro oggetto" (Rosmonda)
Vincenzo Bellini - I Puritani, Act II:
4. "O rendetemi la speme" (Elvira)
5. "Qui la voce sua soave" (Elvira)
6. "Vien, diletto" (Elvira)
Gaetano Donizetti - Maria Stuarda: Act II:
7. "Allenta il pie, Regina" (Maria, Anna)
8. "O nube! che lieve per l'aria" (Maria, Anna)
9. "Nella pace del mesto riposo" (Maria, Anna)
Vincenzo Bellini - La sonnambula: Act II:
10. "Oh!... se una volta sola" (Amina)
11. "Ah! non credea mirarti" (Amina)
12. "Ah! non giunge uman pensiero" (Amina)
Giuseppe Verdi
I Masnadieri: Act I:
13. "Venerabile, o padre" (Amalia)
14. "Lo sguardo avea degli angeli" (Amalia)
La Traviata: Act I:
15. "E strano! ... E strano!" (Violetta)
16. "Ah, fors'e lui" (Violetta)
17. "Follie! Follie!" (Violetta)
18. "Sempre libera" (Violetta, Alfredo)
Luisa Miller: Act II:
19. "Il padre tuo" (Luisa, Wurm)
20. "Tu puniscimi, o Signore" (Luisa)
21. "Qui nulla s'attenta" (Luisa, Wurm)
22. "A brani, a brani, o perfido" (Luisa, Wurm)
23. Giacomo Puccini - La Boheme, Act 3: "D'onde lieta usci" (Mimi)
24. Ruggero Leoncavallo - Pagliacci, Act 1: "Qual fiamma avea nel guardo!" (Nedda)

Dynamic Range Meter

foobar2000 1.3.6 / Замер динамического диапазона (DR) 1.1.1
Дата отчёта: 2015-08-03 21:17:34
--------------------------------------------------------------------------------
Анализ: Diana Damrau / Fiamma del belcanto
--------------------------------------------------------------------------------
DR Пики RMS Продолжительность трека
--------------------------------------------------------------------------------
DR13 -2.64 дБ -21.50 дБ 2:39 01-Rosmonda d'Inghilterra, Act 1: "Ancor non giunse" (Rosmonda)
DR13 -5.20 дБ -22.96 дБ 2:50 02-Rosmonda d'Inghilterra, Act 1: "Perchè non ho del vento" (Rosmonda)
DR13 0.00 дБ -18.16 дБ 3:19 03-Rosmonda d'Inghilterra, Act 1: "Torna, torna, o caro oggetto" (Rosmonda)
DR10 -8.13 дБ -25.77 дБ 1:37 04-I puritani, Act 2: "O rendetemi la speme" (Elvira)
DR14 -3.52 дБ -23.65 дБ 2:59 05-I puritani, Act 2: "Qui la voce sua soave" (Elvira)
DR13 0.00 дБ -18.87 дБ 5:00 06-I puritani, Act 2: "Vien, diletto" (Elvira)
DR15 -0.70 дБ -23.10 дБ 3:28 07-Maria Stuarda, Act 2: "Allenta il piè, Regina" (Maria, Anna)
DR14 -0.20 дБ -19.93 дБ 4:07 08-Maria Stuarda, Act 2: "O nube! che lieve per l'aria" (Maria, Anna)
DR11 -0.17 дБ -16.55 дБ 3:07 09-Maria Stuarda, Act 2: "Nella pace del mesto riposo" (Maria, Anna)
DR14 -5.28 дБ -27.17 дБ 5:13 10-La sonnambula, Act 2: "Oh!... se una volta sola" (Amina)
DR12 -7.64 дБ -25.69 дБ 4:06 11-La sonnambula, Act 2: "Ah! non credea mirarti" (Amina)
DR13 0.00 дБ -18.71 дБ 3:20 12-La sonnambula, Act 2: "Ah! non giunge uman pensiero" (Amina)
DR13 -7.37 дБ -27.60 дБ 2:04 13-I Masnadieri, Act 1: "Venerabile, o padre" (Amalia)
DR13 -2.83 дБ -24.39 дБ 3:43 14-I Masnadieri, Act 1: "Lo sguardo avea degli angeli" (Amalia)
DR11 -3.06 дБ -21.06 дБ 1:12 15-La Traviata, Act 1: "È strano!... È strano! " (Violetta)
DR14 -2.75 дБ -22.35 дБ 5:21 16-La Traviata, Act 1: "Ah, fors'è lui " (Violetta)
DR13 -0.06 дБ -18.11 дБ 1:04 17-La Traviata, Act 1: "Follie ! Follie !" (Violetta)
DR12 0.00 дБ -17.46 дБ 3:49 18-Verdi: La Traviata, Act 1: "Sempre libera" (Violetta, Alfredo)
DR15 -0.20 дБ -22.43 дБ 3:23 19-Luisa Miller, Act 2: "Il padre tuo" (Luisa, Wurm)
DR14 -0.20 дБ -20.58 дБ 2:42 20-Luisa Miller, Act 2: "Tu puniscimi, o Signore" (Luisa)
DR13 -4.29 дБ -22.50 дБ 1:55 21-Luisa Miller, Act 2: "Qui nulla s'attenta" (Luisa, Wurm)
DR12 0.00 дБ -16.65 дБ 3:32 22-Luisa Miller, Act 2: "A brani, a brani, o perfido" (Luisa, Wurm)
DR14 -0.20 дБ -21.02 дБ 3:16 23-La Bohème, Act 3: "D'onde lieta usci" (Mimi)
DR14 -0.01 дБ -19.80 дБ 5:01 24-Pagliacci, Act 1: "Qual fiamma avea nel guardo!" (Nedda)
--------------------------------------------------------------------------------
Количество треков: 24
Реальные значения DR: DR13
Частота: 96000 Гц
Каналов: 2
Разрядность: 24
Битрейт: 2748 кбит/с
Кодек: FLAC
================================================================================
[teatrix.ru].t21472.torrent 
Торрент: Зарегистрирован [ 2016-03-20 12:22 ] · D5C494EAD906A857BE3A0214F296F23E370FDE9F

Скачать .torrent

Скачать

17 KB

Статус: проверено
Скачан: 0 раз
Размер: 1.48 GB
terms.php



Быстрый ответ

Имя:

      
Для отправки сообщений необходимо включить JavaScript
Показать сообщения:    

Текущее время: 11-Дек 11:01

Часовой пояс: UTC + 3


Вы можете начинать темы
Вы можете отвечать на сообщения
Вы не можете редактировать свои сообщения
Вы не можете удалять свои сообщения
Вы не можете голосовать в опросах
Вы не можете прикреплять файлы к сообщениям
Вы можете скачивать файлы