(Classical) Reicha, Martinu & Janacek - Chamber Works - Berlin Philharmonic Wind Quintet - 2011, FLAC (image+.cue) lossless


 

[Цитировать]

Reicha, Martinů & Janáček - Chamber Works - Berlin Philharmonic Wind Quintet
Жанр: Classical
Страна-производитель диска: Sweden
Год издания диска: 2011
Издатель (лейбл): BIS
Номер по каталогу: BIS-CD-1802
Дата записи: 2005,2009
Аудиокодек: FLAC
Тип рипа: image+.cue
Битрейт аудио: lossless
Продолжительность: 78:50
Источник: собственный рип
Наличие сканов в содержимом раздачи: да
Треклист:
Anton Reicha (1770–1836)
[1]-[4] Quintet in E flat major, Op. 88 No. 2 (1811)
Bohuslav Martinů (1890–1959)
[5]-[9] Sextet for piano and winds, H 174 (1929)
for flute, oboe, clarinet, two bassoons and piano
Anton Reicha
[10]-[12] Three Pieces
for cor anglais and wind quartet
Leoš Janáček (1854–1928)
[13] March of the Bluebirds, JW7/9 (1924)
for piccolo and piano
[14]-[17] Mládí (Youth), suite for wind sextet, JW 7/10 (1924)
for flute, oboe, clarinet, bass clarinet, horn and bassoon
Исполнители:
Berlin Philharmonic Wind Quintet
Michael Hasel flute/ piccolo · Andreas Wittmann oboe/ cor anglais
Walter Seyfarth clarinet · Fergus McWilliam horn
Henning Trog bassoon
with
Marion Reinhard bassoon II (Martinů)
Manfred Preis bass clarinet
Hendrik Heilmann piano

Лог создания рипа

Exact Audio Copy V1.0 beta 3 from 29. August 2011
EAC extraction logfile from 16. January 2015, 22:37
Berlin Philharmonic Wind Quintet / Works by Reicha, Martinu & Janacek
Used drive : HL-DT-STDVDRAM GU70N Adapter: 0 ID: 0
Read mode : Secure
Utilize accurate stream : Yes
Defeat audio cache : Yes
Make use of C2 pointers : No
Read offset correction : 48
Overread into Lead-In and Lead-Out : No
Fill up missing offset samples with silence : Yes
Delete leading and trailing silent blocks : No
Null samples used in CRC calculations : Yes
Used interface : Native Win32 interface for Win NT & 2000
Used output format : User Defined Encoder
Selected bitrate : 128 kBit/s
Quality : High
Add ID3 tag : No
Command line compressor : C:\Program Files (x86)\Exact Audio Copy\Flac\flac.exe
Additional command line options : -V -8 -T "Date=%year%" -T "Genre=%genre%" %source%
TOC of the extracted CD
Track | Start | Length | Start sector | End sector
---------------------------------------------------------
1 | 0:00.00 | 7:11.70 | 0 | 32394
2 | 7:11.70 | 3:52.53 | 32395 | 49847
3 | 11:04.48 | 7:51.18 | 49848 | 85190
4 | 18:55.66 | 5:55.14 | 85191 | 111829
5 | 24:51.05 | 3:22.54 | 111830 | 127033
6 | 28:13.59 | 3:38.36 | 127034 | 143419
7 | 31:52.20 | 2:27.43 | 143420 | 154487
8 | 34:19.63 | 3:04.65 | 154488 | 168352
9 | 37:24.53 | 2:50.11 | 168353 | 181113
10 | 40:14.64 | 5:58.73 | 181114 | 208036
11 | 46:13.62 | 5:39.42 | 208037 | 233503
12 | 51:53.29 | 7:02.40 | 233504 | 265193
13 | 58:55.69 | 2:19.74 | 265194 | 275692
14 | 61:15.68 | 3:44.03 | 275693 | 292495
15 | 64:59.71 | 5:00.30 | 292496 | 315025
16 | 70:00.26 | 3:49.03 | 315026 | 332203
17 | 73:49.29 | 4:59.39 | 332204 | 354667
Range status and errors
Selected range
Filename C:\temp\BIS-CD-1802 - Works by Reicha, Martinu & Janacek - Berlin Philharmonic Wind Quintet\Works by Reicha, Martinu & Janacek.wav
Peak level 99.8 %
Extraction speed 2.3 X
Range quality 100.0 %
Test CRC E883F85B
Copy CRC E883F85B
Copy OK
No errors occurred
AccurateRip summary
Track 1 not present in database
Track 2 not present in database
Track 3 not present in database
Track 4 not present in database
Track 5 not present in database
Track 6 not present in database
Track 7 not present in database
Track 8 not present in database
Track 9 not present in database
Track 10 not present in database
Track 11 not present in database
Track 12 not present in database
Track 13 not present in database
Track 14 not present in database
Track 15 not present in database
Track 16 not present in database
Track 17 not present in database
None of the tracks are present in the AccurateRip database
End of status report
==== Log checksum 6CC56B43C1CD1DCE1A98A21043B7F44AAB836CEFCB8E30F53DE3DA3A796D5732 ====



Показать сообщения:    

Текущее время: 24-Янв 00:02

Часовой пояс: UTC + 3


Вы не можете начинать темы
Вы не можете отвечать на сообщения
Вы не можете редактировать свои сообщения
Вы не можете удалять свои сообщения
Вы не можете голосовать в опросах
Вы не можете прикреплять файлы к сообщениям
Вы не можете скачивать файлы