(Orchestral) Paul le Flem - Symphonie №1, La Magicienne de la Mer, Fantasie / Поль ле Флем - Симфония №1, Морская кудесница, Фантазия (Marie-Catherine Girod, Orchestre de Bretagne, Claude Schnitzler) - 2007, FLAC (tracks+.cue) lossless


 

[Цитировать]

Paul le Flem - Symphonie №1, La Magicienne de la Mer, Fantasie
Жанр: Orchestral
Страна-производитель диска: France
Год издания диска: 2007
Издатель (лейбл): Timpani
Номер по каталогу: 1C1123
Дата записи: 1993
Аудиокодек: FLAC
Тип рипа: tracks+.cue
Битрейт аудио: lossless
Продолжительность: 68'09
Источник: скачано с
Наличие сканов в содержимом раздачи: да
Треклист:
Paul le Flem (1881-1984)
1-2. Deux Interludes de "La Magicienne de la Mer" (1947)
I. L'appel de Dahut (6:41)
II. Ys engloutie renait dans le reve (5:51)
3. Fantaisie pour piano et orchestre (1911) (11:33)
4-7. Symphonie No.1 en la majeur (1906/8)
I. Lent, anime (10:44)
II. Lent (11:13)
III. Scherzo, assez anime (13:38)
IV. Finale, assez anime (8:18)
Исполнители:
Marie-Catherine Girod, piano (3)
Orchestre de Bretagne
Claude Schnitzler, direction
rec. Radio France, Rennes, oct. 1993

Лог создания рипа

Exact Audio Copy V1.0 beta 2 from 29. April 2011
EAC extraction logfile from 23. November 2011, 16:23
Marie-Catherine Girod, piano. Orchestre de Bretagne, Claude Schnitzler, direction / Paul le Flem - Oeuvres pour orchestre
Used drive : TSSTcorpCDDVDW TS-L632N Adapter: 0 ID: 0
Read mode : Secure
Utilize accurate stream : Yes
Defeat audio cache : Yes
Make use of C2 pointers : No
Read offset correction : 6
Overread into Lead-In and Lead-Out : No
Fill up missing offset samples with silence : Yes
Delete leading and trailing silent blocks : No
Null samples used in CRC calculations : Yes
Used interface : Native Win32 interface for Win NT & 2000
Gap handling : Not detected, thus appended to previous track
Used output format : User Defined Encoder
Selected bitrate : 1024 kBit/s
Quality : High
Add ID3 tag : No
Command line compressor : C:\Program Files (x86)\Exact Audio Copy\Flac\flac.exe
Additional command line options : -8 -V -T "ARTIST=%artist%" -T "TITLE=%title%" -T "ALBUM=%albumtitle%" -T "DATE=%year%" -T "TRACKNUMBER=%tracknr%" -T "GENRE=%genre%" -T "PERFORMER=%albuminterpret%" -T "COMPOSER=%composer%" %haslyrics%--tag-from-file=LYRICS
TOC of the extracted CD
Track | Start | Length | Start sector | End sector
---------------------------------------------------------
1 | 0:00.33 | 6:42.62 | 33 | 30244
2 | 6:43.20 | 5:52.40 | 30245 | 56684
3 | 12:35.60 | 11:34.45 | 56685 | 108779
4 | 24:10.30 | 10:45.55 | 108780 | 157209
5 | 34:56.10 | 11:15.33 | 157210 | 207867
6 | 46:11.43 | 13:39.57 | 207868 | 269349
7 | 59:51.25 | 8:18.08 | 269350 | 306707
Track 1
Filename C:\Program Files (x86)\Exact Audio Copy\Flac\Paul Le Flem\01 - 01.2 Interludes de [La Magicienne de la Mer] - L'appel de Dahut.wav
Peak level 74.0 %
Extraction speed 2.4 X
Track quality 100.0 %
Test CRC DFDFEF91
Copy CRC DFDFEF91
Cannot be verified as accurate (confidence 2) [E065AF23], AccurateRip returned [744299F6] (AR v2)
Copy OK
Track 2
Filename C:\Program Files (x86)\Exact Audio Copy\Flac\Paul Le Flem\02 - 02.2 Interludes de [La Magicienne de la Mer] - Ys engloutie renait dans le reve.wav
Peak level 85.3 %
Extraction speed 2.4 X
Track quality 99.9 %
Test CRC D9E6E0A7
Copy CRC D9E6E0A7
Cannot be verified as accurate (confidence 2) [074B90FA], AccurateRip returned [982E2866] (AR v2)
Copy OK
Track 3
Filename C:\Program Files (x86)\Exact Audio Copy\Flac\Paul Le Flem\03 - 03.Fantaisie pour piano et orchestre - Lent¡Fanime.wav
Peak level 86.8 %
Extraction speed 3.3 X
Track quality 100.0 %
Test CRC DF840D9D
Copy CRC DF840D9D
Cannot be verified as accurate (confidence 2) [83FC7566], AccurateRip returned [3DBC9A19] (AR v2)
Copy OK
Track 4
Filename C:\Program Files (x86)\Exact Audio Copy\Flac\Paul Le Flem\04 - 04.Symphonie no.1 en la majeur - I.Lent¡Fanime.wav
Peak level 66.2 %
Extraction speed 3.4 X
Track quality 99.9 %
Test CRC 4169FE68
Copy CRC 4169FE68
Cannot be verified as accurate (confidence 2) [42502D45], AccurateRip returned [98B9E987] (AR v2)
Copy OK
Track 5
Filename C:\Program Files (x86)\Exact Audio Copy\Flac\Paul Le Flem\05 - 05.Symphonie no.1 en la majeur - II.Lent.wav
Peak level 64.8 %
Extraction speed 4.1 X
Track quality 100.0 %
Test CRC 1C638B42
Copy CRC 1C638B42
Cannot be verified as accurate (confidence 2) [B95E2C5E], AccurateRip returned [203EDE3B] (AR v2)
Copy OK
Track 6
Filename C:\Program Files (x86)\Exact Audio Copy\Flac\Paul Le Flem\06 - 06.Symphonie no.1 en la majeur - III.Scherzo¡Gassez anime.wav
Peak level 79.7 %
Extraction speed 4.6 X
Track quality 100.0 %
Test CRC D8213508
Copy CRC D8213508
Cannot be verified as accurate (confidence 2) [596D738B], AccurateRip returned [B9BB3654] (AR v2)
Copy OK
Track 7
Filename C:\Program Files (x86)\Exact Audio Copy\Flac\Paul Le Flem\07 - 07.Symphonie no.1 en la majeur - IV.Finale¡Gassez anime.wav
Peak level 82.5 %
Extraction speed 4.7 X
Track quality 100.0 %
Test CRC 508D2C0A
Copy CRC 508D2C0A
Cannot be verified as accurate (confidence 2) [4BD3517E], AccurateRip returned [D5338FFA] (AR v2)
Copy OK
No tracks could be verified as accurate
You may have a different pressing from the one(s) in the database
No errors occurred
End of status report
==== Log checksum B9F9D13BCA0C201E624C44741A4F2F3C206F8387F7D6F8E07C3EBDF30DADC648 ====

Содержание индексной карты (.CUE)

REM GENRE Classical
REM DATE 1993
REM DISCID 640FF907
REM COMMENT "ExactAudioCopy v0.99pb4"
PERFORMER "Marie-Catherine Girod, piano. Orchestre de Bretagne, Claude Schnitzler"
TITLE "Paul le Flem - Oeuvres pour orchestre"
FILE "Marie-Catherine Girod, piano. Orchestre de Bretagne, Claude Schnitzler, direction - Paul le Flem - Oeuvres pour orchestre.flac" WAVE
TRACK 01 AUDIO
TITLE "01.2 Interludes de La Magicienne de la Mer - I. L'appel de Dahut"
PERFORMER "Paul le Flem"
INDEX 00 00:00:00
INDEX 01 00:00:33
TRACK 02 AUDIO
TITLE "02.2 Interludes de La Magicienne de la Mer - II. Ys engloutie renait dans le reve"
PERFORMER "Paul le Flem"
INDEX 00 06:41:38
INDEX 01 06:43:20
TRACK 03 AUDIO
TITLE "03.Fantaisie pour piano et orchestre"
PERFORMER "Paul le Flem"
INDEX 00 12:34:03
INDEX 01 12:35:60
TRACK 04 AUDIO
TITLE "04.Symphonie No.1 en la majeur - I. Lent, anime"
PERFORMER "Paul le Flem"
INDEX 00 24:08:48
INDEX 01 24:10:30
TRACK 05 AUDIO
TITLE "05.Symphonie No.1 en la majeur - II. Lent"
PERFORMER "Paul le Flem"
INDEX 00 34:54:31
INDEX 01 34:56:10
TRACK 06 AUDIO
TITLE "06.Symphonie No.1 en la majeur - III. Scherzo, assez anime"
PERFORMER "Paul le Flem"
INDEX 00 46:09:61
INDEX 01 46:11:43
TRACK 07 AUDIO
TITLE "07.Symphonie No.1 en la majeur - IV. Finale, assez anime"
PERFORMER "Paul le Flem"
INDEX 00 59:49:43
INDEX 01 59:51:25
Доп. информация: В творчестве французского композитора-долгожителя Поля ле Флема сочеталась приверженность академическим традициям "Schola Cantorum", любовь к музыке импрессионистов и бретонскому фольклору. Диск представляет собой ретроспективу оркестровых сочинений ле Флема разных жанров. В программе:
- основанная на народных мелодиях амбициозная 1я симфония (1906-08), чья музыка, несмотря на контрапунктические изыски, вызывает в воображении красочные морские ландшафты и пейзажи Бретани;
- романтическая Фантазия для фортепиано с оркестром (1911) над которой витает тень Сезара Франка, впрочем слегка модернизированного;
- две симфонические интерлюдии из оперы 'Морская кудесница' (1947), посвящённой истории легендарного бретонского города Ис целиком ушедшего под воду - достаточно необычный музыкальный синтез жёсткой атональности и нежного импрессионизма.



Показать сообщения:    

Текущее время: 02-Дек 21:15

Часовой пояс: UTC + 3


Вы не можете начинать темы
Вы не можете отвечать на сообщения
Вы не можете редактировать свои сообщения
Вы не можете удалять свои сообщения
Вы не можете голосовать в опросах
Вы не можете прикреплять файлы к сообщениям
Вы не можете скачивать файлы