[TR24][OF] Wolfgang Amadeus Mozart - Sonatas For Piano & Violin - Mitsuko Uchida, Mark Steinberg - 2005/2012 (Classical)


Статистика раздачи [Обновить пиров]
Размер:  1.37 GB   |    Зарегистрирован:  8 месяцев 14 дней   |    Скачан:  0 раз

Полного источника не было: Никогда

 
   
 
 
 

[Цитировать]

Wolfgang Amadeus Mozart
Sonatas For Piano & Violin
Mitsuko Uchida · Mark Steinberg
- Год издания/переиздания диска: 2005/2012
Жанр: Classical
Издатель (лейбл): Universal Music
Продолжительность: 01:10:34
Наличие сканов: Sleeve- -
Wolfgang Amadeus Mozart (1756-1791)
Sonata for Piano and Violin in F, K.377
01. 1. Allegro (3:52)
02. 2. Tema (Andante) con variazioni (10:08)
03. 3. Tempo di menuetto (5:57)
Sonata for Piano and Violin in C, K.303
04. 1. Adagio - Molto allegro (5:15)
05. 2. Tempo di minuetto (4:42)
Sonata for Piano and Violin in E minor, K.304
06. 1. Allegro (9:39)
07. 2. Tempo di minuetto (6:21)
Sonata for Piano and Violin in A, K.526
08. 1. Allegro molto (6:54)
09. 2. Andante (10:53)
10. 3. Presto (6:53)-Mitsuko Uchida - piano
Mark Steinberg - violin-Контейнер: FLAC (*.flac)
Тип рипа: tracks
Разрядность: 24bit / 96kHz
Количество каналов: 2.0
-О релизе
“Steinberg and Uchida have established an astonishingly sensitive collaboration. Steinberg's playing was as alert as Uchida's. He employed every shade of vibrato to characterise different phrases, and created a huge range of expressive colours.” --- The Guardian
“…Mitsuko Uchida and Mark Steinberg form a true, creative partnership. …for me their searching, richly characterised performances make them a new benchmark.” --- BBC Music Magazine

ОтчётыДинамический диапазон

foobar2000 1.2.2 / Dynamic Range Meter 1.1.1
log date: 2015-06-16 17:49:23
--------------------------------------------------------------------------------
Analyzed: Mitsuko Uchida, Mark Steinberg / Mozart: Sonatas For Piano & Violin
--------------------------------------------------------------------------------
DR Peak RMS Duration Track
--------------------------------------------------------------------------------
DR13 -1.97 dB -19.02 dB 3:52 ?-Sonata for Piano and Violin in F, K.377 - 1. Allegro
DR13 -2.18 dB -21.52 dB 10:08 ?-Sonata for Piano and Violin in F, K.377 - 2. Tema (Andante) con variazioni
DR14 -1.65 dB -22.77 dB 5:57 ?-Sonata for Piano and Violin in F, K.377 - 3. Tempo di menuetto
DR14 -0.54 dB -21.22 dB 5:15 ?-Sonata for Piano and Violin in C, K.303 - 1. Adagio - Molto allegro
DR13 -2.18 dB -20.42 dB 4:42 ?-Sonata for Piano and Violin in C, K.303 - 2. Tempo di minuetto
DR13 -2.18 dB -19.82 dB 9:39 ?-Sonata for Piano and Violin in E minor, K.304 - 1. Allegro
DR13 -1.60 dB -22.12 dB 6:21 ?-Sonata for Piano and Violin in E minor, K.304 - 2. Tempo di minuetto
DR14 -1.06 dB -20.25 dB 6:54 ?-Sonata for Piano and Violin in A, K.526 - 1. Allegro molto
DR14 -4.01 dB -25.58 dB 10:53 ?-Sonata for Piano and Violin in A, K.526 - 2. Andante
DR13 -1.21 dB -19.17 dB 6:53 ?-Sonata for Piano and Violin in A, K.526 - 3. Presto
--------------------------------------------------------------------------------
Number of tracks: 10
Official DR value: DR13
Samplerate: 96000 Hz
Channels: 2
Bits per sample: 24
Bitrate: 2830 kbps
Codec: FLAC
================================================================================

Скриншот спектра частот

Доп. информация

При скачивании, если необходимо, переименуйте папку, в которой будет находиться альбомБольшая просьба к скачавшим поддерживать раздачу! Помогайте другим, ведь вам тоже может понадобиться помощь!Не забываем говорить "Спасибо"!Комментарии приветствуются!
[teatrix.ru].t21478.torrent 
Торрент: Зарегистрирован [ 2016-03-20 12:22 ] · 91FFE9D4D9A31A8031432AE7FDDBE2B8FDBD5AED

Скачать .torrent

Скачать

15 KB

Статус: проверено
Скачан: 0 раз
Размер: 1.37 GB
terms.php



Быстрый ответ

Имя:

      
Для отправки сообщений необходимо включить JavaScript
Показать сообщения:    

Текущее время: 03-Дек 18:36

Часовой пояс: UTC + 3


Вы можете начинать темы
Вы можете отвечать на сообщения
Вы не можете редактировать свои сообщения
Вы не можете удалять свои сообщения
Вы не можете голосовать в опросах
Вы не можете прикреплять файлы к сообщениям
Вы можете скачивать файлы