Кумиры экрана. Анатолий Ромашин (Руслан Заварзин) [2000, Личности и кумиры, DVB]


Статистика раздачи [Обновить пиров]
Размер:  510 MB   |    Зарегистрирован:  8 месяцев 21 день   |    Скачан:  0 раз

Полного источника не было: Никогда

 
   
 
 
 

[Цитировать]

Кумиры экрана. Анатолий Ромашин
Дата/Год выпуска: 2000
Страна: Россия
Жанр: Личности и кумиры
Продолжительность: 00:27:02
Перевод: Не требуется
Студия / издатель: ВТВ-сервис
Режиссер: Руслан Заварзин
Телеканал: Ретро
Описание: Ромашин Анатолий Владимирович
Родился 1 января 1931 года в Ленинграде.Несмотря на джентльменскую внешность, происхождения актер самого простого: его отец был рабочим, мать, эстонка по национальности, в молодости работала горничной в богатой семье и до конца своих дней плохо говорила по-русски. В детстве Анатолий Владимирович пережил ленинградскую блокаду, последним эшелоном уехав с сестрой и матерью по льду Ладожского озера на большую землю.
Окончил Ленинградский механический институт, в 1959 году — Школу-студию МХАТ имени В.И. Немировича-Данченко, курс В.Я. Станицына.
В 1959-1984 годах, 1990-1992 годах — актёр Московского Академического театра имени Владимира Маяковского, в последние годы участвовал в спектаклях Театра Луны.
С 1986 года — руководитель актёрской мастерской ВГИКа, профессор.
В кино с 1958 года.
Доп. информация: "Кумиры экрана" - авторская передача Народной артистки СССР Клары Лучко, выступающей в роли ведущей.
Сэмпл: https://www.sendspace.com/file/816qi8
качество: DVB
формат: MPG
Видео: MPEG2, 720:576, (4:3) 2392 Кбит/сек, 25,000 кадров/сек, (0.231 bit/pixel)
Аудио: MP2, 192 Кбит/сек, 48,0 КГц, 2 канала

MediaInfo

Общее
Полное имя :Кумиры экрана. Анатолий Ромашин..mpg
Формат : MPEG-PS
Размер файла : 510 Мбайт
Продолжительность : 27 м.
Режим общего битрейта : Переменный
Общий поток : 2637 Кбит/сек
Видео
Идентификатор : 224 (0xE0)
Формат : MPEG Video
Версия формата : Version 2
Профиль формата : Main@Main
Параметр BVOP формата : Да
Параметр матрицы формата : Выборочная
Параметр GOP формата : M=3, N=12
Структура изображения : Frame
Продолжительность : 27 м.
Вид битрейта : Переменный
Битрейт : 2392 Кбит/сек
Максимальный битрейт : 10000 Кбит/сек
Ширина : 720 пикселей
Высота : 576 пикселей
Соотношение сторон : 4:3
Частота кадров : 25,000 кадров/сек
Стандарт вещания : PAL
Цветовое пространство : YUV
Субдискретизация насыщенности : 4:2:0
Битовая глубина : 8 бит
Тип развёртки : Чересстрочная
Порядок развёртки : Верхнее поле первое
Метод сжатия : С потерями
Бит/(Пиксели*Кадры) : 0.231
Временной код первого кадра : 00:00:00:00
Оригинал временного кода : Group of pictures header
GOP, открыто/закрыто : Открыто
GOP, открыто/закрыто на первом кадре : Закрыто
Размер потока : 463 Мбайт (91%)
Аудио
Идентификатор : 192 (0xC0)
Формат : MPEG Audio
Версия формата : Version 1
Профиль формата : Layer 2
Продолжительность : 27 м.
Вид битрейта : Постоянный
Битрейт : 192 Кбит/сек
Каналы : 2 канала
Частота : 48,0 КГц
Метод сжатия : С потерями
Задержка видео : 17 мс.
Размер потока : 37,1 Мбайт (7%)

Скриншоты

Запись потока *.ts произведена тюнером цифрового телевидения. В связи с тем, что не все плееры воспроизводят поток *.ts (MPEG-TS) , в данном видеофайле мной был сделан ремукс потока *.ts (MPEG-TS) в *.mpg (MPEG-PS) программой VideoReDo.
[teatrix.ru].t21479.torrent 
Торрент: Зарегистрирован [ 2016-03-20 12:22 ] · 822F6FCC85B728C36CD4806532A380EB0D7EABF3

Скачать .torrent

Скачать

20 KB

Статус: проверено
Скачан: 0 раз
Размер: 510 MB
terms.php



Быстрый ответ

Имя:

      
Для отправки сообщений необходимо включить JavaScript
Показать сообщения:    

Текущее время: 11-Дек 07:10

Часовой пояс: UTC + 3


Вы можете начинать темы
Вы можете отвечать на сообщения
Вы не можете редактировать свои сообщения
Вы не можете удалять свои сообщения
Вы не можете голосовать в опросах
Вы не можете прикреплять файлы к сообщениям
Вы можете скачивать файлы