(Oratorio) Schubert -  Lazarus, oder Die Feier der Auferstehung  (Rubens, Nylund, Nold, Weir, Azesberger - Gachinger Kantorei Stuttgart /  Bach-Collegium Stuttgart, Rilling) - 2002, APE (tracks+.cue) lossless


Статистика раздачи [Обновить пиров]
Размер:  482 MB   |    Зарегистрирован:  8 месяцев 19 дней   |    Скачан:  0 раз

Полного источника не было: Никогда

 
   
 
 
 

[Цитировать]

Franz Schubert -  Lazarus, oder Die Feier der Auferstehung
Жанр: Oratorio
Страна-производитель диска: EU
Год издания диска: 2002
Издатель (лейбл): Brilliant Classics
Номер по каталогу: 99969
Дата записи: 1996
Аудиокодек: APE
Тип рипа: tracks+.cue
Битрейт аудио: lossless
Продолжительность: 71'41+59'01 
Источник: скачано с
Наличие сканов в содержимом раздачи: да
Треклист:

CD1

1. Part 1. Hier lasst mich ruhn
2. Part 1. Noch einen augenblick
3. Part 1. Trübe nicht mit Klagen seine Seele
4. Part 1. Steh im letzten Kampf dem Müden
5. Part 1. Voll Frieden
6. Part 1. So segne mich
7. Part 1. Willkommen, mein Nathanael
8. Part 1. Wenn ich ihm nachgerungen habe
9. Part 1. Nathanael, bewundern kann ich dich
10. Part 1. O Martha, bliebst du stiller
11. Part 1. Der Trost begleite dich hinüber
12. Part 1. Wenn nun mit tausendfachen Qualen
13. Part 1. Gottes Liebe, du bist seine Zuversicht
14. Part 1. Ach, so find ich ihn noch
15. Part 1. Jemina, Tochter der Auferstehung
16. Part 1. So, schlummert auf Rosen die Unschuld ein
17. Part 1. Nun entflog auf schnellen Schwingen
18. Part 1. Ach seht, er wird so bleich
19. Part 1. Ich sterbe, ach nun kommt
20. Part 1. Allgnädiger, heile du unrer Seele Wunde
21. Part 2. Einleitung
22. Part 2. Wo bin ich
23. Part 2. O könnt ich, Allgewaltiger
24. Part 2. Wes ist der Klage Stimme
25. Part 2. Sanft und still schläft unser Freund

CD2

1. Part 2. So legt ihn in die Blumen
2. Part 2. Hebt mich, der Stürme Flügel
3. Part 2. Einst-wenn vom Abend und vom Morgen her
4. Part 2. Mein stiller Abend ist gekommen
5. Part 2. Wiedersehn! sei uns gesegnet
6. Part 3. Ich hab'ihn gesehen
7. Part 3. Auferwecker!
8. Part 3. Maria! Ach wenn er den Schlummernden
9. Part 3. Ich folge, meine Schwester
10. Part 3. Wie ich wanke! Wie ich irre
11. Part 3. Preis dem Erwecker!
12. Part 3. Er kam, mit Trost des Himmels
13. Part 3. Preis dem Erwecker!
14. Part 3. Simon! Simon, noch so trübe dein Auge
15. Part 3. Wilkommen, meine Brüder
16. Part 3. O dass mit Himmelharmonien
17. Part 3. Mehr! viel mehr! Kein Harfenklang
18. Part 3. O Tag des Jubels
19. Part 3. In Wetterwolken eingehüllt
20. Part 3. Was wird jener Tag sein
21. Part 3. Ich will dich singen
22. Part 3. Heilige Stätte
23. Part 3. Komm, Wonnetag
Исполнители:
Franz Schubert (1797-1828) - Lazarus, oder Die Feier der Auferstehung
Religiöses Drama in drei Akten D689 
Text von August Hermann Niemeyer completed by Edison Denisov
Maria - Sibylla Rubens (Soprano) 
Martha - Camilla Nylund (Soprano) 
Jemina - Simone Nold (Soprano) 
Lazarus - Scot Weir (Tenor) 
Nathanael - Kurt Azesberger (Tenor) 
Ein Jüngling - Christian Voigt (Tenor) 
Simon - Mattias Goerne (Bass) 
Gächinger Kantorei Stuttgart 
Bach-Collegium Stuttgart
Helmuth Rilling

Лог создания рипа

CD1

Exact Audio Copy V1.0 beta 6 from 9. April 2015
EAC extraction logfile from 10. June 2015, 1:11
Schubert /
Lazarus, oder Die Feier der Auferstehung
Used drive : TSSTcorp CDDVDW SE-208AB Adapter: 1 ID: 0
Read mode : Secure
Utilize accurate stream : Yes
Defeat audio cache : Yes
Make use of C2 pointers : No
Read offset correction : 6
Overread into Lead-In and Lead-Out : No
Fill up missing offset samples with silence : Yes
Delete leading and trailing silent blocks : No
Null samples used in CRC calculations : Yes
Used interface : Native Win32 interface for Win NT & 2000
Gap handling : Not detected, thus appended to previous track
Used output format : Monkey's Audio Lossless Encoder
Selected bitrate : High Lossless Compression
Quality : High
Add ID3 tag : Yes
Command line compressor : C:\Program Files (x86)\Exact Audio Copy\MAC\MAC.exe
TOC of the extracted CD
Track | Start | Length | Start sector | End sector
---------------------------------------------------------
1 | 0:00.00 | 3:29.47 | 0 | 15721
2 | 3:29.47 | 1:36.15 | 15722 | 22936
3 | 5:05.62 | 2:53.40 | 22937 | 35951
4 | 7:59.27 | 3:30.70 | 35952 | 51771
5 | 11:30.22 | 2:48.40 | 51772 | 64411
6 | 14:18.62 | 2:21.35 | 64412 | 75021
7 | 16:40.22 | 1:24.23 | 75022 | 81344
8 | 18:04.45 | 3:06.60 | 81345 | 95354
9 | 21:11.30 | 1:13.67 | 95355 | 100896
10 | 22:25.22 | 2:09.25 | 100897 | 110596
11 | 24:34.47 | 1:08.03 | 110597 | 115699
12 | 25:42.50 | 2:04.30 | 115700 | 125029
13 | 27:47.05 | 4:26.05 | 125030 | 144984
14 | 32:13.10 | 0:57.65 | 144985 | 149324
15 | 33:11.00 | 4:10.72 | 149325 | 168146
16 | 37:21.72 | 4:01.18 | 168147 | 186239
17 | 41:23.15 | 2:36.40 | 186240 | 197979
18 | 43:59.55 | 0:27.07 | 197980 | 200011
19 | 44:26.62 | 3:35.58 | 200012 | 216194
20 | 48:02.45 | 2:47.32 | 216195 | 228751
21 | 50:50.02 | 3:04.63 | 228752 | 242614
22 | 53:54.65 | 3:17.05 | 242615 | 257394
23 | 57:11.70 | 4:38.47 | 257395 | 278291
24 | 61:50.42 | 4:07.08 | 278292 | 296824
25 | 65:57.50 | 5:41.34 | 296825 | 322433
Track 1
Filename D:\Converted\Schubert\_Lazarus, oder Die Feier der Auferstehung\01. Lazarus, oder Die Feter der Auferstehung, D. 689 (Edison Denisov completion)_ Act I, I. _Hier lasst mich ruhn_ (Lazarus).wav
Pre-gap length 0:00:02.00
Peak level 51.9 %
Track quality 100.0 %
Test CRC 930FBC5C
Copy CRC 930FBC5C
Track not present in AccurateRip database
Copy OK
Track 2
Filename D:\Converted\Schubert\_Lazarus, oder Die Feier der Auferstehung\02. Lazarus, oder Die Feter der Auferstehung, D. 689 (Edison Denisov completion)_ Act. I, II. _Noch einen Augenblick_ (Martha).wav
Peak level 88.7 %
Track quality 100.0 %
Test CRC F1967D4B
Copy CRC F1967D4B
Track not present in AccurateRip database
Copy OK
Track 3
Filename D:\Converted\Schubert\_Lazarus, oder Die Feier der Auferstehung\03. Lazarus, oder Die Feter der Auferstehung, D. 689 (Edison Denisov completion)_ Act I, III. _Trübe nicht mit Klagen seine Seele_ (Maria).wav
Peak level 98.0 %
Track quality 100.0 %
Test CRC C99482DF
Copy CRC C99482DF
Track not present in AccurateRip database
Copy OK
Track 4
Filename D:\Converted\Schubert\_Lazarus, oder Die Feier der Auferstehung\04. Lazarus, oder Die Feter der Auferstehung, D. 689 (Edison Denisov completion)_ Act I, IV. Aria _Steh im letzten Kampf dem Müden_ (Maria).wav
Peak level 68.7 %
Track quality 100.0 %
Test CRC 41C34B2C
Copy CRC 41C34B2C
Track not present in AccurateRip database
Copy OK
Track 5
Filename D:\Converted\Schubert\_Lazarus, oder Die Feier der Auferstehung\05. Lazarus, oder Die Feter der Auferstehung, D. 689 (Edison Denisov completion)_ Act I, V_ _Voll Friede_ (Lazarus).wav
Peak level 75.5 %
Track quality 100.0 %
Test CRC FE92670A
Copy CRC FE92670A
Track not present in AccurateRip database
Copy OK
Track 6
Filename D:\Converted\Schubert\_Lazarus, oder Die Feier der Auferstehung\06. Lazarus, oder Die Feter der Auferstehung, D. 689 (Edison Denisov completion)_ Act I, VI. _So segne mich_ (Nathanael).wav
Peak level 52.5 %
Track quality 100.0 %
Test CRC C1B2F2C7
Copy CRC C1B2F2C7
Track not present in AccurateRip database
Copy OK
Track 7
Filename D:\Converted\Schubert\_Lazarus, oder Die Feier der Auferstehung\07. Lazarus, oder Die Feter der Auferstehung, D. 689 (Edison Denisov completion)_ Act I, VII. _Willkommen, mein Nathanael_ (Lazarus).wav
Peak level 78.3 %
Track quality 100.0 %
Test CRC 9774CA4A
Copy CRC 9774CA4A
Track not present in AccurateRip database
Copy OK
Track 8
Filename D:\Converted\Schubert\_Lazarus, oder Die Feier der Auferstehung\08. Lazarus, oder Die Feter der Auferstehung, D. 689 (Edison Denisov completion)_ Act I, VIII. Aria _Wenn ich ihm nachgerungen habe_ (Nathanael).wav
Peak level 45.0 %
Track quality 100.0 %
Test CRC 8E028991
Copy CRC 8E028991
Track not present in AccurateRip database
Copy OK
Track 9
Filename D:\Converted\Schubert\_Lazarus, oder Die Feier der Auferstehung\09. Lazarus, oder Die Feter der Auferstehung, D. 689 (Edison Denisov completion)_ Act I, IX. _Nathanael, bewundern kann ich dich_ (Martha).wav
Peak level 92.8 %
Track quality 100.0 %
Test CRC 7747CA6B
Copy CRC 7747CA6B
Track not present in AccurateRip database
Copy OK
Track 10
Filename D:\Converted\Schubert\_Lazarus, oder Die Feier der Auferstehung\10. Lazarus, oder Die Feter der Auferstehung, D. 689 (Edison Denisov completion)_ Act I, X. _O Martha, bliebst du stiller_ (Maria).wav
Peak level 40.0 %
Track quality 100.0 %
Test CRC C83B2FB0
Copy CRC C83B2FB0
Track not present in AccurateRip database
Copy OK
Track 11
Filename D:\Converted\Schubert\_Lazarus, oder Die Feier der Auferstehung\11. Lazarus, oder Die Feter der Auferstehung, D. 689 (Edison Denisov completion)_ Act I, XI. _Der Trost begleite dich hinüber_ (Maria).wav
Peak level 39.1 %
Track quality 100.0 %
Test CRC 718515FA
Copy CRC 718515FA
Track not present in AccurateRip database
Copy OK
Track 12
Filename D:\Converted\Schubert\_Lazarus, oder Die Feier der Auferstehung\12. Lazarus, oder Die Feter der Auferstehung, D. 689 (Edison Denisov completion)_ Act I, XII. _Wenn nun mit tausendfachen Qualen_ (Maria).wav
Peak level 86.6 %
Track quality 100.0 %
Test CRC 2CC47783
Copy CRC 2CC47783
Track not present in AccurateRip database
Copy OK
Track 13
Filename D:\Converted\Schubert\_Lazarus, oder Die Feier der Auferstehung\13. Lazarus, oder Die Feter der Auferstehung, D. 689 (Edison Denisov completion)_ Act I. XIII. Aria _Gottes Liebe, du bist seine Zuversicht_ (Maria).wav
Peak level 68.2 %
Track quality 100.0 %
Test CRC F0AE9224
Copy CRC F0AE9224
Track not present in AccurateRip database
Copy OK
Track 14
Filename D:\Converted\Schubert\_Lazarus, oder Die Feier der Auferstehung\14. Lazarus, oder Die Feter der Auferstehung, D. 689 (Edison Denisov completion)_ Act I, XIV. _Ach, so find ich ihn noch_ (Jemina).wav
Peak level 49.0 %
Track quality 100.0 %
Test CRC F36DBC8E
Copy CRC F36DBC8E
Track not present in AccurateRip database
Copy OK
Track 15
Filename D:\Converted\Schubert\_Lazarus, oder Die Feier der Auferstehung\15. Lazarus, oder Die Feter der Auferstehung, D. 689 (Edison Denisov completion)_ Act I, XV. _Jemina, Tochter der Auferstehung_ (Lazarus).wav
Peak level 32.1 %
Track quality 100.0 %
Test CRC 8FF34E32
Copy CRC 8FF34E32
Track not present in AccurateRip database
Copy OK
Track 16
Filename D:\Converted\Schubert\_Lazarus, oder Die Feier der Auferstehung\16. Lazarus, oder Die Feter der Auferstehung, D. 689 (Edison Denisov completion)_ Act I, XVI Aria _So schlummert auf Rosen die Unschuld ein_ (Jemina).wav
Peak level 50.4 %
Track quality 100.0 %
Test CRC 40C37106
Copy CRC 40C37106
Track not present in AccurateRip database
Copy OK
Track 17
Filename D:\Converted\Schubert\_Lazarus, oder Die Feier der Auferstehung\17. Lazarus, oder Die Feter der Auferstehung, D. 689 (Edison Denisov completion)_ Act I, XVII. _Nun entflog auf schnellen Schwingen_ (Jemina).wav
Peak level 98.4 %
Track quality 100.0 %
Test CRC CF896398
Copy CRC CF896398
Track not present in AccurateRip database
Copy OK
Track 18
Filename D:\Converted\Schubert\_Lazarus, oder Die Feier der Auferstehung\18. Lazarus, oder Die Feter der Auferstehung, D. 689 (Edison Denisov completion)_ Act I, XVIII. _Ach seht, er wird so bleich_ (Jemina).wav
Peak level 98.0 %
Track quality 100.0 %
Test CRC 1BE08CF7
Copy CRC 1BE08CF7
Track not present in AccurateRip database
Copy OK
Track 19
Filename D:\Converted\Schubert\_Lazarus, oder Die Feier der Auferstehung\19. Lazarus, oder Die Feter der Auferstehung, D. 689 (Edison Denisov completion)_ Act I, XIX. _Ich sterbe, ach nun kommt_ (Lazarus).wav
Peak level 38.9 %
Track quality 100.0 %
Test CRC E145FCDB
Copy CRC E145FCDB
Track not present in AccurateRip database
Copy OK
Track 20
Filename D:\Converted\Schubert\_Lazarus, oder Die Feier der Auferstehung\20. Lazarus, oder Die Feter der Auferstehung, D. 689 (Edison Denisov completion)_ Act I, XX. _Allgnädiger, heile du unsrer Seele Wunde_ (Choir).wav
Peak level 86.6 %
Track quality 100.0 %
Test CRC B17A1E0E
Copy CRC B17A1E0E
Track not present in AccurateRip database
Copy OK
Track 21
Filename D:\Converted\Schubert\_Lazarus, oder Die Feier der Auferstehung\21. Lazarus, oder Die Feter der Auferstehung, D. 689 (Edison Denisov completion)_ Act II, I. _Einleitung_.wav
Peak level 85.9 %
Track quality 100.0 %
Test CRC 62E140CF
Copy CRC 62E140CF
Track not present in AccurateRip database
Copy OK
Track 22
Filename D:\Converted\Schubert\_Lazarus, oder Die Feier der Auferstehung\22. Lazarus, oder Die Feter der Auferstehung, D. 689 (Edison Denisov completion)_ Act II, II. _Wo bin ich_ (Simon).wav
Peak level 66.7 %
Track quality 100.0 %
Test CRC ABD7D618
Copy CRC ABD7D618
Track not present in AccurateRip database
Copy OK
Track 23
Filename D:\Converted\Schubert\_Lazarus, oder Die Feier der Auferstehung\23. Lazarus, oder Die Feter der Auferstehung, D. 689 (Edison Denisov completion)_ Act II, III. Aria _O könnt ich, Allgewaltiger_ (Simon).wav
Peak level 79.0 %
Track quality 100.0 %
Test CRC 0B0D8A9B
Copy CRC 0B0D8A9B
Track not present in AccurateRip database
Copy OK
Track 24
Filename D:\Converted\Schubert\_Lazarus, oder Die Feier der Auferstehung\24. Lazarus, oder Die Feter der Auferstehung, D. 689 (Edison Denisov completion)_ Act II, IV. _Wes ist der Klage Stimme_ (Nathanael).wav
Peak level 49.3 %
Track quality 100.0 %
Test CRC 3602E03C
Copy CRC 3602E03C
Track not present in AccurateRip database
Copy OK
Track 25
Filename D:\Converted\Schubert\_Lazarus, oder Die Feier der Auferstehung\25. Lazarus, oder Die Feter der Auferstehung, D. 689 (Edison Denisov completion)_ Act II, V. _Sanft und still schläft unser Freund_ (Choir).wav
Peak level 98.0 %
Extraction speed 3.7 X
Track quality 100.0 %
Test CRC 6659D0A3
Copy CRC 6659D0A3
Track not present in AccurateRip database
Copy OK
None of the tracks are present in the AccurateRip database
No errors occurred
End of status report

CD2

Exact Audio Copy V1.0 beta 6 from 9. April 2015
EAC extraction logfile from 10. June 2015, 1:17
Schubert / Lazarus, oder Die Feier der Auferstehung CD2
Used drive : TSSTcorpCDDVDW SE-208AB Adapter: 1 ID: 1
Read mode : Secure
Utilize accurate stream : Yes
Defeat audio cache : Yes
Make use of C2 pointers : No
Read offset correction : 6
Overread into Lead-In and Lead-Out : No
Fill up missing offset samples with silence : Yes
Delete leading and trailing silent blocks : No
Null samples used in CRC calculations : Yes
Used interface : Native Win32 interface for Win NT & 2000
Gap handling : Not detected, thus appended to previous track
Used output format : Monkey's Audio Lossless Encoder
Selected bitrate : High Lossless Compression
Quality : High
Add ID3 tag : Yes
Command line compressor : C:\Program Files (x86)\Exact Audio Copy\MAC\MAC.exe
TOC of the extracted CD
Track | Start | Length | Start sector | End sector
---------------------------------------------------------
1 | 0:00.00 | 3:46.05 | 0 | 16954
2 | 3:46.05 | 2:25.45 | 16955 | 27874
3 | 6:11.50 | 1:29.40 | 27875 | 34589
4 | 7:41.15 | 2:26.17 | 34590 | 45556
5 | 10:07.32 | 2:55.43 | 45557 | 58724
6 | 13:03.00 | 5:03.07 | 58725 | 81456
7 | 18:06.07 | 2:09.65 | 81457 | 91196
8 | 20:15.72 | 1:47.30 | 91197 | 99251
9 | 22:03.27 | 2:24.28 | 99252 | 110079
10 | 24:27.55 | 4:33.12 | 110080 | 130566
11 | 29:00.67 | 1:56.35 | 130567 | 139301
12 | 30:57.27 | 4:36.18 | 139302 | 160019
13 | 35:33.45 | 1:29.47 | 160020 | 166741
14 | 37:03.17 | 2:21.38 | 166742 | 177354
15 | 39:24.55 | 1:36.55 | 177355 | 184609
16 | 41:01.35 | 1:28.22 | 184610 | 191231
17 | 42:29.57 | 4:11.15 | 191232 | 210071
18 | 46:40.72 | 0:51.13 | 210072 | 213909
19 | 47:32.10 | 1:43.62 | 213910 | 221696
20 | 49:15.72 | 1:16.48 | 221697 | 227444
21 | 50:32.45 | 3:57.20 | 227445 | 245239
22 | 54:29.65 | 2:22.42 | 245240 | 255931
23 | 56:52.32 | 2:07.24 | 255932 | 265480
Track 1
Filename D:\EAC\Lazarus CD2\01 Lazarus, D.689 - Nathanael- So legt ihn in die Blumen.wav
Peak level 100.0 %
Extraction speed 2.4 X
Track quality 99.9 %
Test CRC 7D01F0CF
Copy CRC 7D01F0CF
Track not present in AccurateRip database
Copy OK
Track 2
Filename D:\EAC\Lazarus CD2\02 Lazarus, D.689 - Aria Martha- Hebt mich, der Sturme Flugel.wav
Peak level 100.0 %
Extraction speed 2.9 X
Track quality 100.0 %
Test CRC FD9456D0
Copy CRC FD9456D0
Track not present in AccurateRip database
Copy OK
Track 3
Filename D:\EAC\Lazarus CD2\03 Lazarus, D.689 - Nathanael- Einst-wenn vom Abend und vom Morgen her.wav
Peak level 50.6 %
Extraction speed 2.7 X
Track quality 100.0 %
Test CRC 63CDB6DE
Copy CRC 63CDB6DE
Track not present in AccurateRip database
Copy OK
Track 4
Filename D:\EAC\Lazarus CD2\04 Lazarus, D.689 - Ein Jungling- Mein stiller Abend ist gekommen.wav
Peak level 92.0 %
Extraction speed 3.2 X
Track quality 100.0 %
Test CRC A18803A8
Copy CRC A18803A8
Track not present in AccurateRip database
Copy OK
Track 5
Filename D:\EAC\Lazarus CD2\05 Lazarus, D.689 - Chorus- Wiedersehn! sei uns gesegnet.wav
Peak level 74.8 %
Extraction speed 3.4 X
Track quality 100.0 %
Test CRC 036AD414
Copy CRC 036AD414
Track not present in AccurateRip database
Copy OK
Track 6
Filename D:\EAC\Lazarus CD2\06 Lazarus, D.689 - III. Martha- Ich hab'ihn gesehen.wav
Peak level 98.0 %
Extraction speed 3.3 X
Track quality 99.9 %
Test CRC 3F877F28
Copy CRC 3F877F28
Track not present in AccurateRip database
Copy OK
Track 7
Filename D:\EAC\Lazarus CD2\07 Lazarus, D.689 - Aria Maria- Auferwecker!.wav
Peak level 100.0 %
Extraction speed 3.6 X
Track quality 100.0 %
Test CRC F0E3771A
Copy CRC F0E3771A
Track not present in AccurateRip database
Copy OK
Track 8
Filename D:\EAC\Lazarus CD2\08 Lazarus, D.689 - Martha- Maria! Ach wenn er den Schlummernden.wav
Peak level 85.2 %
Extraction speed 3.4 X
Track quality 100.0 %
Test CRC 9342CB11
Copy CRC 9342CB11
Track not present in AccurateRip database
Copy OK
Track 9
Filename D:\EAC\Lazarus CD2\09 Lazarus, D.689 - Maria- Ich folge, meine Schwester!.wav
Peak level 52.0 %
Extraction speed 3.8 X
Track quality 100.0 %
Test CRC 8219A8F5
Copy CRC 8219A8F5
Track not present in AccurateRip database
Copy OK
Track 10
Filename D:\EAC\Lazarus CD2\10 Lazarus, D.689 - Simon- Wie ich wanke! Wie ich irre!.wav
Peak level 98.0 %
Extraction speed 4.4 X
Track quality 100.0 %
Test CRC 76C57737
Copy CRC 76C57737
Track not present in AccurateRip database
Copy OK
Track 11
Filename D:\EAC\Lazarus CD2\11 Lazarus, D.689 - Chorus- Preis dem Erwecker!.wav
Peak level 100.0 %
Extraction speed 3.9 X
Track quality 100.0 %
Test CRC EC909C2C
Copy CRC EC909C2C
Track not present in AccurateRip database
Copy OK
Track 12
Filename D:\EAC\Lazarus CD2\12 Lazarus, D.689 - Chorus- Er kam, mit Torst des Himmels.wav
Peak level 98.0 %
Extraction speed 3.9 X
Track quality 99.9 %
Test CRC 400DC21B
Copy CRC 400DC21B
Track not present in AccurateRip database
Copy OK
Track 13
Filename D:\EAC\Lazarus CD2\13 Lazarus, D.689 - Chorus- Preis dem Erwecker!.wav
Peak level 98.0 %
Extraction speed 2.4 X
Track quality 99.8 %
Test CRC 69858BAC
Copy CRC 69858BAC
Track not present in AccurateRip database
Copy OK
Track 14
Filename D:\EAC\Lazarus CD2\14 Lazarus, D.689 - Nathanael- Simon! Simon, noch so trube dein Auge.wav
Peak level 56.9 %
Extraction speed 4.4 X
Track quality 100.0 %
Test CRC 9F4269C1
Copy CRC 9F4269C1
Track not present in AccurateRip database
Copy OK
Track 15
Filename D:\EAC\Lazarus CD2\15 Lazarus, D.689 - Lazarus- Willkommen, meine Bruder.wav
Peak level 39.4 %
Extraction speed 4.0 X
Track quality 100.0 %
Test CRC E8446C11
Copy CRC E8446C11
Track not present in AccurateRip database
Copy OK
Track 16
Filename D:\EAC\Lazarus CD2\16 Lazarus, D.689 - Aria Lazarus- O dass mit Himmelharmonien.wav
Peak level 39.9 %
Extraction speed 2.5 X
Track quality 99.8 %
Test CRC 406D380F
Copy CRC 406D380F
Track not present in AccurateRip database
Copy OK
Track 17
Filename D:\EAC\Lazarus CD2\17 Lazarus, D.689 - Chorus- Mehr! viel mehr! Kein Harfenklang.wav
Peak level 65.1 %
Extraction speed 5.2 X
Track quality 100.0 %
Test CRC C6149784
Copy CRC C6149784
Track not present in AccurateRip database
Copy OK
Track 18
Filename D:\EAC\Lazarus CD2\18 Lazarus, D.689 - Simon- O Tag des Jubels.wav
Peak level 95.8 %
Extraction speed 3.4 X
Track quality 100.0 %
Test CRC 70AFB217
Copy CRC 70AFB217
Track not present in AccurateRip database
Copy OK
Track 19
Filename D:\EAC\Lazarus CD2\19 Lazarus, D.689 - Aria Simon- In Wetterwolken eingehullt.wav
Peak level 100.0 %
Extraction speed 4.4 X
Track quality 100.0 %
Test CRC 469DA019
Copy CRC 469DA019
Track not present in AccurateRip database
Copy OK
Track 20
Filename D:\EAC\Lazarus CD2\20 Lazarus, D.689 - Nathanael- Was wird jener Tag sein.wav
Peak level 33.1 %
Extraction speed 4.0 X
Track quality 100.0 %
Test CRC 3BEE5E5F
Copy CRC 3BEE5E5F
Track not present in AccurateRip database
Copy OK
Track 21
Filename D:\EAC\Lazarus CD2\21 Lazarus, D.689 - Lazarus- Ich will dich singen.wav
Peak level 98.0 %
Extraction speed 5.4 X
Track quality 100.0 %
Test CRC 1E3DC953
Copy CRC 1E3DC953
Track not present in AccurateRip database
Copy OK
Track 22
Filename D:\EAC\Lazarus CD2\22 Lazarus, D.689 - Chorus- Heilige Statte.wav
Peak level 98.0 %
Extraction speed 5.0 X
Track quality 100.0 %
Test CRC 2C5C54ED
Copy CRC 2C5C54ED
Track not present in AccurateRip database
Copy OK
Track 23
Filename D:\EAC\Lazarus CD2\23 Lazarus, D.689 - Chorus- Komm, Wonnetag.wav
Peak level 98.0 %
Extraction speed 4.9 X
Track quality 100.0 %
Test CRC 7EF17598
Copy CRC 7EF17598
Track not present in AccurateRip database
Copy OK
None of the tracks are present in the AccurateRip database
No errors occurred

Содержание индексной карты (.CUE)

CD1

REM COMMENT "CUETools generated dummy CUE sheet"
FILE "01. Lazarus, oder Die Feter der Auferstehung, D. 689 (Edison Denisov completion)_ Act I, I. _Hier lasst mich ruhn_ (Lazarus).ape" WAVE
TRACK 01 AUDIO
INDEX 01 00:00:00
FILE "02. Lazarus, oder Die Feter der Auferstehung, D. 689 (Edison Denisov completion)_ Act. I, II. _Noch einen Augenblick_ (Martha).ape" WAVE
TRACK 02 AUDIO
INDEX 01 00:00:00
FILE "03. Lazarus, oder Die Feter der Auferstehung, D. 689 (Edison Denisov completion)_ Act I, III. _Trübe nicht mit Klagen seine Seele_ (Maria).ape" WAVE
TRACK 03 AUDIO
INDEX 01 00:00:00
FILE "04. Lazarus, oder Die Feter der Auferstehung, D. 689 (Edison Denisov completion)_ Act I, IV. Aria _Steh im letzten Kampf dem Müden_ (Maria).ape" WAVE
TRACK 04 AUDIO
INDEX 01 00:00:00
FILE "05. Lazarus, oder Die Feter der Auferstehung, D. 689 (Edison Denisov completion)_ Act I, V_ _Voll Friede_ (Lazarus).ape" WAVE
TRACK 05 AUDIO
INDEX 01 00:00:00
FILE "06. Lazarus, oder Die Feter der Auferstehung, D. 689 (Edison Denisov completion)_ Act I, VI. _So segne mich_ (Nathanael).ape" WAVE
TRACK 06 AUDIO
INDEX 01 00:00:00
FILE "07. Lazarus, oder Die Feter der Auferstehung, D. 689 (Edison Denisov completion)_ Act I, VII. _Willkommen, mein Nathanael_ (Lazarus).ape" WAVE
TRACK 07 AUDIO
INDEX 01 00:00:00
FILE "08. Lazarus, oder Die Feter der Auferstehung, D. 689 (Edison Denisov completion)_ Act I, VIII. Aria _Wenn ich ihm nachgerungen habe_ (Nathanael).ape" WAVE
TRACK 08 AUDIO
INDEX 01 00:00:00
FILE "09. Lazarus, oder Die Feter der Auferstehung, D. 689 (Edison Denisov completion)_ Act I, IX. _Nathanael, bewundern kann ich dich_ (Martha).ape" WAVE
TRACK 09 AUDIO
INDEX 01 00:00:00
FILE "10. Lazarus, oder Die Feter der Auferstehung, D. 689 (Edison Denisov completion)_ Act I, X. _O Martha, bliebst du stiller_ (Maria).ape" WAVE
TRACK 10 AUDIO
INDEX 01 00:00:00
FILE "11. Lazarus, oder Die Feter der Auferstehung, D. 689 (Edison Denisov completion)_ Act I, XI. _Der Trost begleite dich hinüber_ (Maria).ape" WAVE
TRACK 11 AUDIO
INDEX 01 00:00:00
FILE "12. Lazarus, oder Die Feter der Auferstehung, D. 689 (Edison Denisov completion)_ Act I, XII. _Wenn nun mit tausendfachen Qualen_ (Maria).ape" WAVE
TRACK 12 AUDIO
INDEX 01 00:00:00
FILE "13. Lazarus, oder Die Feter der Auferstehung, D. 689 (Edison Denisov completion)_ Act I. XIII. Aria _Gottes Liebe, du bist seine Zuversicht_ (Maria).ape" WAVE
TRACK 13 AUDIO
INDEX 01 00:00:00
FILE "14. Lazarus, oder Die Feter der Auferstehung, D. 689 (Edison Denisov completion)_ Act I, XIV. _Ach, so find ich ihn noch_ (Jemina).ape" WAVE
TRACK 14 AUDIO
INDEX 01 00:00:00
FILE "15. Lazarus, oder Die Feter der Auferstehung, D. 689 (Edison Denisov completion)_ Act I, XV. _Jemina, Tochter der Auferstehung_ (Lazarus).ape" WAVE
TRACK 15 AUDIO
INDEX 01 00:00:00
FILE "16. Lazarus, oder Die Feter der Auferstehung, D. 689 (Edison Denisov completion)_ Act I, XVI Aria _So schlummert auf Rosen die Unschuld ein_ (Jemina).ape" WAVE
TRACK 16 AUDIO
INDEX 01 00:00:00
FILE "17. Lazarus, oder Die Feter der Auferstehung, D. 689 (Edison Denisov completion)_ Act I, XVII. _Nun entflog auf schnellen Schwingen_ (Jemina).ape" WAVE
TRACK 17 AUDIO
INDEX 01 00:00:00
FILE "18. Lazarus, oder Die Feter der Auferstehung, D. 689 (Edison Denisov completion)_ Act I, XVIII. _Ach seht, er wird so bleich_ (Jemina).ape" WAVE
TRACK 18 AUDIO
INDEX 01 00:00:00
FILE "19. Lazarus, oder Die Feter der Auferstehung, D. 689 (Edison Denisov completion)_ Act I, XIX. _Ich sterbe, ach nun kommt_ (Lazarus).ape" WAVE
TRACK 19 AUDIO
INDEX 01 00:00:00
FILE "20. Lazarus, oder Die Feter der Auferstehung, D. 689 (Edison Denisov completion)_ Act I, XX. _Allgnädiger, heile du unsrer Seele Wunde_ (Choir).ape" WAVE
TRACK 20 AUDIO
INDEX 01 00:00:00
FILE "21. Lazarus, oder Die Feter der Auferstehung, D. 689 (Edison Denisov completion)_ Act II, I. _Einleitung_.ape" WAVE
TRACK 21 AUDIO
INDEX 01 00:00:00
FILE "22. Lazarus, oder Die Feter der Auferstehung, D. 689 (Edison Denisov completion)_ Act II, II. _Wo bin ich_ (Simon).ape" WAVE
TRACK 22 AUDIO
INDEX 01 00:00:00
FILE "23. Lazarus, oder Die Feter der Auferstehung, D. 689 (Edison Denisov completion)_ Act II, III. Aria _O könnt ich, Allgewaltiger_ (Simon).ape" WAVE
TRACK 23 AUDIO
INDEX 01 00:00:00
FILE "24. Lazarus, oder Die Feter der Auferstehung, D. 689 (Edison Denisov completion)_ Act II, IV. _Wes ist der Klage Stimme_ (Nathanael).ape" WAVE
TRACK 24 AUDIO
INDEX 01 00:00:00
FILE "25. Lazarus, oder Die Feter der Auferstehung, D. 689 (Edison Denisov completion)_ Act II, V. _Sanft und still schläft unser Freund_ (Choir).ape" WAVE
TRACK 25 AUDIO
INDEX 01 00:00:00

CD2

REM COMMENT "CUETools generated dummy CUE sheet"
FILE "01 Lazarus, D.689 - Nathanael- So legt ihn in die Blumen.ape" WAVE
TRACK 01 AUDIO
INDEX 01 00:00:00
FILE "02 Lazarus, D.689 - Aria Martha- Hebt mich, der Sturme Flugel.ape" WAVE
TRACK 02 AUDIO
INDEX 01 00:00:00
FILE "03 Lazarus, D.689 - Nathanael- Einst-wenn vom Abend und vom Morgen her.ape" WAVE
TRACK 03 AUDIO
INDEX 01 00:00:00
FILE "04 Lazarus, D.689 - Ein Jungling- Mein stiller Abend ist gekommen.ape" WAVE
TRACK 04 AUDIO
INDEX 01 00:00:00
FILE "05 Lazarus, D.689 - Chorus- Wiedersehn! sei uns gesegnet.ape" WAVE
TRACK 05 AUDIO
INDEX 01 00:00:00
FILE "06 Lazarus, D.689 - III. Martha- Ich hab'ihn gesehen.ape" WAVE
TRACK 06 AUDIO
INDEX 01 00:00:00
FILE "07 Lazarus, D.689 - Aria Maria- Auferwecker!.ape" WAVE
TRACK 07 AUDIO
INDEX 01 00:00:00
FILE "08 Lazarus, D.689 - Martha- Maria! Ach wenn er den Schlummernden.ape" WAVE
TRACK 08 AUDIO
INDEX 01 00:00:00
FILE "09 Lazarus, D.689 - Maria- Ich folge, meine Schwester!.ape" WAVE
TRACK 09 AUDIO
INDEX 01 00:00:00
FILE "10 Lazarus, D.689 - Simon- Wie ich wanke! Wie ich irre!.ape" WAVE
TRACK 10 AUDIO
INDEX 01 00:00:00
FILE "11 Lazarus, D.689 - Chorus- Preis dem Erwecker!.ape" WAVE
TRACK 11 AUDIO
INDEX 01 00:00:00
FILE "12 Lazarus, D.689 - Chorus- Er kam, mit Torst des Himmels.ape" WAVE
TRACK 12 AUDIO
INDEX 01 00:00:00
FILE "13 Lazarus, D.689 - Chorus- Preis dem Erwecker!.ape" WAVE
TRACK 13 AUDIO
INDEX 01 00:00:00
FILE "14 Lazarus, D.689 - Nathanael- Simon! Simon, noch so trube dein Auge.ape" WAVE
TRACK 14 AUDIO
INDEX 01 00:00:00
FILE "15 Lazarus, D.689 - Lazarus- Willkommen, meine Bruder.ape" WAVE
TRACK 15 AUDIO
INDEX 01 00:00:00
FILE "16 Lazarus, D.689 - Aria Lazarus- O dass mit Himmelharmonien.ape" WAVE
TRACK 16 AUDIO
INDEX 01 00:00:00
FILE "17 Lazarus, D.689 - Chorus- Mehr! viel mehr! Kein Harfenklang.ape" WAVE
TRACK 17 AUDIO
INDEX 01 00:00:00
FILE "18 Lazarus, D.689 - Simon- O Tag des Jubels.ape" WAVE
TRACK 18 AUDIO
INDEX 01 00:00:00
FILE "19 Lazarus, D.689 - Aria Simon- In Wetterwolken eingehullt.ape" WAVE
TRACK 19 AUDIO
INDEX 01 00:00:00
FILE "20 Lazarus, D.689 - Nathanael- Was wird jener Tag sein.ape" WAVE
TRACK 20 AUDIO
INDEX 01 00:00:00
FILE "21 Lazarus, D.689 - Lazarus- Ich will dich singen.ape" WAVE
TRACK 21 AUDIO
INDEX 01 00:00:00
FILE "22 Lazarus, D.689 - Chorus- Heilige Statte.ape" WAVE
TRACK 22 AUDIO
INDEX 01 00:00:00
FILE "23 Lazarus, D.689 - Chorus- Komm, Wonnetag.ape" WAVE
TRACK 23 AUDIO
INDEX 01 00:00:00

Лог проверки качества

CD1

[CUETools log; Date: 10-6-2015 4:35:08; Version: 2.1.4]
[CTDB TOCID: 7s8AKq84CFy8GjLNNori4NnmtUQ-] found.
Track | CTDB Status
1 | (1/1) Accurately ripped
2 | (1/1) Accurately ripped
3 | (1/1) Accurately ripped
4 | (1/1) Accurately ripped
5 | (1/1) Accurately ripped
6 | (1/1) Accurately ripped
7 | (1/1) Accurately ripped
8 | (1/1) Accurately ripped
9 | (1/1) Accurately ripped
10 | (1/1) Accurately ripped
11 | (1/1) Accurately ripped
12 | (1/1) Accurately ripped
13 | (1/1) Accurately ripped
14 | (1/1) Accurately ripped
15 | (1/1) Accurately ripped
16 | (1/1) Accurately ripped
17 | (1/1) Accurately ripped
18 | (1/1) Accurately ripped
19 | (1/1) Accurately ripped
20 | (1/1) Accurately ripped
21 | (1/1) Accurately ripped
22 | (1/1) Accurately ripped
23 | (1/1) Accurately ripped
24 | (1/1) Accurately ripped
25 | (1/1) Accurately ripped
[AccurateRip ID: 0039bd02-04158c3d-6c10cb19] disk not present in database.
Track Peak [ CRC32 ] [W/O NULL] [ LOG ]
-- 98,4 [ECBEAA41] [AA526186]
01 51,9 [930FBC5C] [8D0C7C0E] CRC32
02 88,7 [F1967D4B] [CFD75C86] CRC32
03 98,0 [C99482DF] [4BF7F731] CRC32
04 68,7 [41C34B2C] [2132726A] CRC32
05 75,5 [FE92670A] [CD3A775E] CRC32
06 52,5 [C1B2F2C7] [CD0D6108] CRC32
07 78,3 [9774CA4A] [7F9A84A7] CRC32
08 45,0 [8E028991] [5D1A7567] CRC32
09 92,8 [7747CA6B] [1F097EA6] CRC32
10 40,0 [C83B2FB0] [804EC181] CRC32
11 39,1 [718515FA] [6A386447] CRC32
12 86,6 [2CC47783] [D477C475] CRC32
13 68,2 [F0AE9224] [DA396310] CRC32
14 49,0 [F36DBC8E] [95530BD0] CRC32
15 32,1 [8FF34E32] [C8B2FB88] CRC32
16 50,4 [40C37106] [8C4A2AFA] CRC32
17 98,4 [CF896398] [38769207] CRC32
18 98,0 [1BE08CF7] [EC2BC69E] CRC32
19 38,9 [E145FCDB] [9CF32D1F] CRC32
20 86,6 [B17A1E0E] [EFD34A68] CRC32
21 85,9 [62E140CF] [2A899BF6] CRC32
22 66,7 [ABD7D618] [9F6E35F5] CRC32
23 79,0 [0B0D8A9B] [CE23EC59] CRC32
24 49,3 [3602E03C] [49DF67D7] CRC32
25 98,0 [6659D0A3] [8110F521] CRC32

CD2

[CUETools log; Date: 10-6-2015 4:30:42; Version: 2.1.4]
[CTDB TOCID: eaoTTstkY8kfUOk4Yd5yq3n5coQ-] found.
Track | CTDB Status
1 | (1/1) Accurately ripped
2 | (1/1) Accurately ripped
3 | (1/1) Accurately ripped
4 | (1/1) Accurately ripped
5 | (1/1) Accurately ripped
6 | (1/1) Accurately ripped
7 | (1/1) Accurately ripped
8 | (1/1) Accurately ripped
9 | (1/1) Accurately ripped
10 | (1/1) Accurately ripped
11 | (1/1) Accurately ripped
12 | (1/1) Accurately ripped
13 | (1/1) Accurately ripped
14 | (1/1) Accurately ripped
15 | (1/1) Accurately ripped
16 | (1/1) Accurately ripped
17 | (1/1) Accurately ripped
18 | (1/1) Accurately ripped
19 | (1/1) Accurately ripped
20 | (1/1) Accurately ripped
21 | (1/1) Accurately ripped
22 | (1/1) Accurately ripped
23 | (1/1) Accurately ripped
[AccurateRip ID: 0033329d-034ab0af-480dd317] disk not present in database.
Track Peak [ CRC32 ] [W/O NULL] [ LOG ]
-- 100,0 [E43FF705] [E7CD1406]
01 100,0 [7D01F0CF] [F55787FA] CRC32
02 100,0 [FD9456D0] [30E678A2] CRC32
03 50,6 [63CDB6DE] [AD365E68] CRC32
04 92,0 [A18803A8] [D6F4B193] CRC32
05 74,8 [036AD414] [F46A3252] CRC32
06 98,0 [3F877F28] [EC3D0497] CRC32
07 100,0 [F0E3771A] [FB1D0FBC] CRC32
08 85,2 [9342CB11] [43F033CF] CRC32
09 52,0 [8219A8F5] [4255BD39] CRC32
10 98,0 [76C57737] [E728EE7F] CRC32
11 100,0 [EC909C2C] [8C325A68] CRC32
12 98,0 [400DC21B] [E5C8D5ED] CRC32
13 98,0 [69858BAC] [38675A84] CRC32
14 56,9 [9F4269C1] [253ADAAE] CRC32
15 39,4 [E8446C11] [E4B6A039] CRC32
16 39,9 [406D380F] [614B13E3] CRC32
17 65,1 [C6149784] [B21D0D89] CRC32
18 95,8 [70AFB217] [40B76260] CRC32
19 100,0 [469DA019] [C5A41C8C] CRC32
20 33,1 [3BEE5E5F] [6D4ECF00] CRC32
21 98,0 [1E3DC953] [5E6A9BDC] CRC32
22 98,0 [2C5C54ED] [1695F228] CRC32
23 98,0 [7EF17598] [3E10FE05] CRC32
Доп. информация:
Schubert struggled his whole life with the large scale vocal forms: he never completed a whole opera.
Lazarus is a large-scale Cantata for 6 soloists, chorus and orchestra.
It is a revolutionary work, full of dramatic moments, reflecting the wondrous events of the biblical story of the resurrection of Lazarus.
Schubert unfortunately never completed the work, and only two acts survived.
In 1994 choral conductor Helmuth Rilling commissioned the Russian composer Edison Denisov to complete the work, which he did in his own style.
A very special release, excellently performed by Helmuth Rilling and his choir and orchestra, and 6 splendid soloists, among which great bass-baritone Matthias Goerne.
[teatrix.ru].t21480.torrent 
Торрент: Зарегистрирован [ 2016-03-20 12:22 ] · 81479C4510C2EA47E674159219760BD495AC45DE

Скачать .torrent

Скачать

27 KB

Статус: проверено
Скачан: 0 раз
Размер: 482 MB
terms.php



Быстрый ответ

Имя:

      
Для отправки сообщений необходимо включить JavaScript
Показать сообщения:    

Текущее время: 09-Дек 03:05

Часовой пояс: UTC + 3


Вы можете начинать темы
Вы можете отвечать на сообщения
Вы не можете редактировать свои сообщения
Вы не можете удалять свои сообщения
Вы не можете голосовать в опросах
Вы не можете прикреплять файлы к сообщениям
Вы можете скачивать файлы