(Baroque French cantatas) Rameau - Les Amants Trahis (Helene Guilmette, Philippe Sly / Clavecin en concert, Luc Beausejour) - 2013, FLAC (tracks+.cue) lossless


 

[Цитировать]

Rameau - Les Amants Trahis

Жанр: Baroque French cantatas
Страна-производитель диска: Made in Canada
Год издания диска: 2013
Издатель (лейбл): ANALEKTA
Номер по каталогу: AN 2 9991
Дата записи: 2012
Аудиокодек: FLAC
Тип рипа: tracks+.cue
Битрейт аудио: lossless
Продолжительность: 62'50
Источник: релизер
сайт-источник/ник/другое: peotuvave (рип не его)
Наличие сканов в содержимом раздачи: да
Треклист:

скрытый текст

Thétis
1. Prélude; Muses, dans vos divins concerts (Récitatif)
2. Volez, tyrans des airs, Aquilons furieux (Air)
3. Neptune en ce moment, au gré de sa fureur (Récitatif)
4. Partez, volez, brillants éclairs! (Air)
5. Quel aveugle transport vous guide? (Récitatif)
6. Beautés qu'un sort heureux destine (Air)
Les Amants trahis
7. I. Écho! Combien de fois ai-je su vous instruire (Récitatif)
8. II. Ma bergère a trahis sa foi (Duo)
9. III. Quoi! Vous riez d'une telle disgrâce? (Récitatif)
10. IV. Lorsque malgré son inconstance (Air)
11. V. Sont-ce donc là les lois de l'amoureux empire ? (Récitatif)
12. VI. Quand on perd ce qu'on aime (Duo)
13. VII. Non, immolons des jours que le sort a proscrits (Récitatif)
14. VIII. Le désespoir n'est que folie (Air)
15. IX. Pardonne, Amour (Récitatif)
16. X. Du dieu d'amour (Air en musette)
17. XI. Ne finirez vous point de si honteux regrets ? (Récitatif)
18. XII. Quand une volage beauté (Duo)
Aquilon et Orithie
19. I. Que j'ai bien mérité la froideur d'Orithie (Récitatif)
20. II. Un amant tel que moi (Air)
21. III. Peut être d'Orithie avec moins de douceur (Récitatif)
22. IV. Servez mes feux à votre tour (Air)
23. V. Après ces discours menaçants (Récitatif)
24. VI. On peut toujours dans l'amoureux mystère (Air)
Le Berger fidèle
25. I. Prêt à voir immoler l'objet de sa tendresse (Récitatif)
26. II. Faut-il qu'Amarillis périsse? (Air)
27. III. Mais c'est trop me livrer à ma douleur
28. IV. L'amour qui règne dans votre âme (Air)
29. V. Cependant à l'autel le Berger se présente (Récitatif)
30. VI. Charmant Amour, sous ta puissance (Air)
Исполнители:

скрытый текст

Jean-Philippe Rameau
Thétis
Le Berger fidèle
Aquilon et Orithie
Les Amants Trahis

Cantates françaises / French cantatas
Hélène Guilmette - сопрано
Philippe Sly - бас-баритон
Clavecin en concert
Luc Beauséjour - кондуктор
Recorded in Église St-Augustin de Mirabel, Québec, Canada, during October 2012
Audio CD (April 23, 2013)

Лог создания рипа

X Lossless Decoder version 20140427 (146.0)
XLD extraction logfile from 2014-04-28 21:47:19 -0400
Hélène Guilmette, Philippe Sly, Luc Beauséjour / Les Amants Trahis
Used drive : HL-DT-ST DVDRW GX30N (revision RP09)
Media type : Pressed CD
Ripper mode : XLD Secure Ripper
Disable audio cache : OK for the drive with a cache less than 1375KiB
Make use of C2 pointers : NO
Read offset correction : 6
Max retry count : 20
Gap status : Analyzed, Appended (except HTOA)
TOC of the extracted CD
Track | Start | Length | Start sector | End sector
---------------------------------------------------------
1 | 00:00:00 | 02:24:54 | 0 | 10853
2 | 02:24:54 | 01:58:12 | 10854 | 19715
3 | 04:22:66 | 00:38:67 | 19716 | 22632
4 | 05:01:58 | 02:02:67 | 22633 | 31849
5 | 07:04:50 | 00:44:69 | 31850 | 35218
6 | 07:49:44 | 02:37:36 | 35219 | 47029
7 | 10:27:05 | 01:19:28 | 47030 | 52982
8 | 11:46:33 | 01:32:05 | 52983 | 59887
9 | 13:18:38 | 00:30:29 | 59888 | 62166
10 | 13:48:67 | 03:25:36 | 62167 | 77577
11 | 17:14:28 | 00:48:72 | 77578 | 81249
12 | 18:03:25 | 01:00:23 | 81250 | 85772
13 | 19:03:48 | 00:24:10 | 85773 | 87582
14 | 19:27:58 | 02:34:63 | 87583 | 99195
15 | 22:02:46 | 01:03:05 | 99196 | 103925
16 | 23:05:51 | 05:03:32 | 103926 | 126682
17 | 28:09:08 | 01:21:56 | 126683 | 132813
18 | 29:30:64 | 05:10:72 | 132814 | 156135
19 | 34:41:61 | 00:54:32 | 156136 | 160217
20 | 35:36:18 | 02:57:66 | 160218 | 173558
21 | 38:34:09 | 00:27:04 | 173559 | 175587
22 | 39:01:13 | 03:56:06 | 175588 | 193293
23 | 42:57:19 | 00:48:41 | 193294 | 196934
24 | 43:45:60 | 04:12:07 | 196935 | 215841
25 | 47:57:67 | 00:41:45 | 215842 | 218961
26 | 48:39:37 | 04:45:54 | 218962 | 240390
27 | 53:25:16 | 00:27:10 | 240391 | 242425
28 | 53:52:26 | 03:56:11 | 242426 | 260136
29 | 57:48:37 | 00:55:50 | 260137 | 264311
30 | 58:44:12 | 04:15:65 | 264312 | 283501
AccurateRip Summary
Disc not found in AccurateRip DB.
All Tracks
Album gain : -0.41 dB
Peak : 0.966339
Statistics
Read error : 0
Jitter error (maybe fixed) : 0
Retry sector count : 0
Damaged sector count : 0
Track 01
Filename : /Users/bill/Desktop/01 Rameau, Jean-Philippe (1683 - 1764) - Prélude: Muses, dans vos divins concerts.flac
/Users/bill/Desktop/01 Rameau, Jean-Philippe (1683 - 1764) - Prélude: Muses, dans vos divins concerts.mp3
Pre-gap length : 00:02:00
Track gain : -0.68 dB
Peak : 0.919159
CRC32 hash (test run) : 6BE37B74
CRC32 hash : 6BE37B74
CRC32 hash (skip zero) : 3BD028B9
AccurateRip v1 signature : 8EC17267
AccurateRip v2 signature : E00B4624
->Track not present in AccurateRip database.
Statistics
Read error : 0
Jitter error (maybe fixed) : 0
Retry sector count : 0
Damaged sector count : 0
Track 02
Filename : /Users/bill/Desktop/02 Rameau, Jean-Philippe (1683 - 1764) - Volez, tyrans des airs, Aquilons furieux.flac
/Users/bill/Desktop/02 Rameau, Jean-Philippe (1683 - 1764) - Volez, tyrans des airs, Aquilons furieux.mp3
Track gain : -3.07 dB
Peak : 0.963715
CRC32 hash (test run) : 62D5735B
CRC32 hash : 62D5735B
CRC32 hash (skip zero) : 0B7B1AA2
AccurateRip v1 signature : F5F9640F
AccurateRip v2 signature : 2E657E86
->Track not present in AccurateRip database.
Statistics
Read error : 0
Jitter error (maybe fixed) : 0
Retry sector count : 0
Damaged sector count : 0
Track 03
Filename : /Users/bill/Desktop/03 Rameau, Jean-Philippe (1683 - 1764) - Neptune en ce moment, au gré de sa fureur.flac
/Users/bill/Desktop/03 Rameau, Jean-Philippe (1683 - 1764) - Neptune en ce moment, au gré de sa fureur.mp3
Track gain : -5.67 dB
Peak : 0.966339
CRC32 hash (test run) : 80C73CB2
CRC32 hash : 80C73CB2
CRC32 hash (skip zero) : 3AB72454
AccurateRip v1 signature : 3164CCF6
AccurateRip v2 signature : 46B6171D
->Track not present in AccurateRip database.
Statistics
Read error : 0
Jitter error (maybe fixed) : 0
Retry sector count : 0
Damaged sector count : 0
Track 04
Filename : /Users/bill/Desktop/04 Rameau, Jean-Philippe (1683 - 1764) - Partez, volez, brillants éclairs!.flac
/Users/bill/Desktop/04 Rameau, Jean-Philippe (1683 - 1764) - Partez, volez, brillants éclairs!.mp3
Track gain : -4.62 dB
Peak : 0.964264
CRC32 hash (test run) : 86762D73
CRC32 hash : 86762D73
CRC32 hash (skip zero) : D7CBC525
AccurateRip v1 signature : 2BFF3C79
AccurateRip v2 signature : E088008A
->Track not present in AccurateRip database.
Statistics
Read error : 0
Jitter error (maybe fixed) : 0
Retry sector count : 0
Damaged sector count : 0
Track 05
Filename : /Users/bill/Desktop/05 Rameau, Jean-Philippe (1683 - 1764) - Quel aveugle transport vous guide?.flac
/Users/bill/Desktop/05 Rameau, Jean-Philippe (1683 - 1764) - Quel aveugle transport vous guide?.mp3
Track gain : -0.86 dB
Peak : 0.669708
CRC32 hash (test run) : EB088BFE
CRC32 hash : EB088BFE
CRC32 hash (skip zero) : 58446EE1
AccurateRip v1 signature : 1C723C1D
AccurateRip v2 signature : EB758062
->Track not present in AccurateRip database.
Statistics
Read error : 0
Jitter error (maybe fixed) : 0
Retry sector count : 0
Damaged sector count : 0
Track 06
Filename : /Users/bill/Desktop/06 Rameau, Jean-Philippe (1683 - 1764) - Beautés qu'un sort heureux destine.flac
/Users/bill/Desktop/06 Rameau, Jean-Philippe (1683 - 1764) - Beautés qu'un sort heureux destine.mp3
Track gain : 2.78 dB
Peak : 0.620026
CRC32 hash (test run) : 9AE5ED1C
CRC32 hash : 9AE5ED1C
CRC32 hash (skip zero) : 41D7A3D9
AccurateRip v1 signature : 5F30DFB0
AccurateRip v2 signature : 14265FD5
->Track not present in AccurateRip database.
Statistics
Read error : 0
Jitter error (maybe fixed) : 0
Retry sector count : 0
Damaged sector count : 0
Track 07
Filename : /Users/bill/Desktop/07 Rameau, Jean-Philippe (1683 - 1764) - Écho! Combien de fois ai-je su vous instruire.flac
/Users/bill/Desktop/07 Rameau, Jean-Philippe (1683 - 1764) - Écho! Combien de fois ai-je su vous instruire.mp3
Pre-gap length : 00:03:06
Track gain : 2.12 dB
Peak : 0.950378
CRC32 hash (test run) : CED0CA74
CRC32 hash : CED0CA74
CRC32 hash (skip zero) : 553858B9
AccurateRip v1 signature : 6F21A54B
AccurateRip v2 signature : 5C2975D1
->Track not present in AccurateRip database.
Statistics
Read error : 0
Jitter error (maybe fixed) : 0
Retry sector count : 0
Damaged sector count : 0
Track 08
Filename : /Users/bill/Desktop/08 Rameau, Jean-Philippe (1683 - 1764) - Ma bergère a trahi sa foi.flac
/Users/bill/Desktop/08 Rameau, Jean-Philippe (1683 - 1764) - Ma bergère a trahi sa foi.mp3
Track gain : -3.10 dB
Peak : 0.924377
CRC32 hash (test run) : 8C8199E5
CRC32 hash : 8C8199E5
CRC32 hash (skip zero) : 0B314D71
AccurateRip v1 signature : DFA071DE
AccurateRip v2 signature : C31A115F
->Track not present in AccurateRip database.
Statistics
Read error : 0
Jitter error (maybe fixed) : 0
Retry sector count : 0
Damaged sector count : 0
Track 09
Filename : /Users/bill/Desktop/09 Rameau, Jean-Philippe (1683 - 1764) - Quoi! Vous riez d'une telle disgrâce?.flac
/Users/bill/Desktop/09 Rameau, Jean-Philippe (1683 - 1764) - Quoi! Vous riez d'une telle disgrâce?.mp3
Track gain : -1.14 dB
Peak : 0.749756
CRC32 hash (test run) : 656FD62E
CRC32 hash : 656FD62E
CRC32 hash (skip zero) : 69476C79
AccurateRip v1 signature : D8964CBB
AccurateRip v2 signature : 57989B2F
->Track not present in AccurateRip database.
Statistics
Read error : 0
Jitter error (maybe fixed) : 0
Retry sector count : 0
Damaged sector count : 0
Track 10
Filename : /Users/bill/Desktop/10 Rameau, Jean-Philippe (1683 - 1764) - Lorsque malgré son inconstance.flac
/Users/bill/Desktop/10 Rameau, Jean-Philippe (1683 - 1764) - Lorsque malgré son inconstance.mp3
Track gain : -2.08 dB
Peak : 0.902618
CRC32 hash (test run) : 2AF94A94
CRC32 hash : 2AF94A94
CRC32 hash (skip zero) : B49828B7
AccurateRip v1 signature : 09ECCB32
AccurateRip v2 signature : 1C4F250E
->Track not present in AccurateRip database.
Statistics
Read error : 0
Jitter error (maybe fixed) : 0
Retry sector count : 0
Damaged sector count : 0
Track 11
Filename : /Users/bill/Desktop/11 Rameau, Jean-Philippe (1683 - 1764) - Sont-ce donc là les lois de l'amoureux empire?.flac
/Users/bill/Desktop/11 Rameau, Jean-Philippe (1683 - 1764) - Sont-ce donc là les lois de l'amoureux empire?.mp3
Track gain : -0.05 dB
Peak : 0.907745
CRC32 hash (test run) : D527BA11
CRC32 hash : D527BA11
CRC32 hash (skip zero) : A3CEBD41
AccurateRip v1 signature : 366F8F1B
AccurateRip v2 signature : CF89C4DD
->Track not present in AccurateRip database.
Statistics
Read error : 0
Jitter error (maybe fixed) : 0
Retry sector count : 0
Damaged sector count : 0
Track 12
Filename : /Users/bill/Desktop/12 Rameau, Jean-Philippe (1683 - 1764) - Quand on perd ce qu'on aime.flac
/Users/bill/Desktop/12 Rameau, Jean-Philippe (1683 - 1764) - Quand on perd ce qu'on aime.mp3
Track gain : 0.60 dB
Peak : 0.693146
CRC32 hash (test run) : E25489A1
CRC32 hash : E25489A1
CRC32 hash (skip zero) : 6B617A52
AccurateRip v1 signature : 831EFA25
AccurateRip v2 signature : D02AE721
->Track not present in AccurateRip database.
Statistics
Read error : 0
Jitter error (maybe fixed) : 0
Retry sector count : 0
Damaged sector count : 0
Track 13
Filename : /Users/bill/Desktop/13 Rameau, Jean-Philippe (1683 - 1764) - Non, immolons des jours que le sort a proscrits.flac
/Users/bill/Desktop/13 Rameau, Jean-Philippe (1683 - 1764) - Non, immolons des jours que le sort a proscrits.mp3
Track gain : 1.60 dB
Peak : 0.450287
CRC32 hash (test run) : 5D615F61
CRC32 hash : 5D615F61
CRC32 hash (skip zero) : B80717A7
AccurateRip v1 signature : 5858425A
AccurateRip v2 signature : 179F84E5
->Track not present in AccurateRip database.
Statistics
Read error : 0
Jitter error (maybe fixed) : 0
Retry sector count : 0
Damaged sector count : 0
Track 14
Filename : /Users/bill/Desktop/14 Rameau, Jean-Philippe (1683 - 1764) - Le désespoir n'est que folie.flac
/Users/bill/Desktop/14 Rameau, Jean-Philippe (1683 - 1764) - Le désespoir n'est que folie.mp3
Track gain : 1.23 dB
Peak : 0.725464
CRC32 hash (test run) : B0D3C9DB
CRC32 hash : B0D3C9DB
CRC32 hash (skip zero) : 613525C8
AccurateRip v1 signature : 22F689BA
AccurateRip v2 signature : D2844288
->Track not present in AccurateRip database.
Statistics
Read error : 0
Jitter error (maybe fixed) : 0
Retry sector count : 0
Damaged sector count : 0
Track 15
Filename : /Users/bill/Desktop/15 Rameau, Jean-Philippe (1683 - 1764) - Pardonne, Amour.flac
/Users/bill/Desktop/15 Rameau, Jean-Philippe (1683 - 1764) - Pardonne, Amour.mp3
Track gain : -3.17 dB
Peak : 0.881531
CRC32 hash (test run) : 3F1791F0
CRC32 hash : 3F1791F0
CRC32 hash (skip zero) : 7EC431E3
AccurateRip v1 signature : B3C528FF
AccurateRip v2 signature : 76F8A52A
->Track not present in AccurateRip database.
Statistics
Read error : 0
Jitter error (maybe fixed) : 0
Retry sector count : 0
Damaged sector count : 0
Track 16
Filename : /Users/bill/Desktop/16 Rameau, Jean-Philippe (1683 - 1764) - Du dieu d'amour.flac
/Users/bill/Desktop/16 Rameau, Jean-Philippe (1683 - 1764) - Du dieu d'amour.mp3
Track gain : 4.91 dB
Peak : 0.596161
CRC32 hash (test run) : 434717FE
CRC32 hash : 434717FE
CRC32 hash (skip zero) : 85FF4865
AccurateRip v1 signature : 7789A3CF
AccurateRip v2 signature : 3A812BD2
->Track not present in AccurateRip database.
Statistics
Read error : 0
Jitter error (maybe fixed) : 0
Retry sector count : 0
Damaged sector count : 0
Track 17
Filename : /Users/bill/Desktop/17 Rameau, Jean-Philippe (1683 - 1764) - Ne finirez vous point de si honteux regrets?.flac
/Users/bill/Desktop/17 Rameau, Jean-Philippe (1683 - 1764) - Ne finirez vous point de si honteux regrets?.mp3
Track gain : 0.70 dB
Peak : 0.582520
CRC32 hash (test run) : AD27F6B4
CRC32 hash : AD27F6B4
CRC32 hash (skip zero) : 777F02B1
AccurateRip v1 signature : 89C818CA
AccurateRip v2 signature : 36F84807
->Track not present in AccurateRip database.
Statistics
Read error : 0
Jitter error (maybe fixed) : 0
Retry sector count : 0
Damaged sector count : 0
Track 18
Filename : /Users/bill/Desktop/18 Rameau, Jean-Philippe (1683 - 1764) - Quend une volage beauté.flac
/Users/bill/Desktop/18 Rameau, Jean-Philippe (1683 - 1764) - Quend une volage beauté.mp3
Track gain : -0.01 dB
Peak : 0.962738
CRC32 hash (test run) : 280B59E8
CRC32 hash : 280B59E8
CRC32 hash (skip zero) : EB805C74
AccurateRip v1 signature : E929D900
AccurateRip v2 signature : 2505C390
->Track not present in AccurateRip database.
Statistics
Read error : 0
Jitter error (maybe fixed) : 0
Retry sector count : 0
Damaged sector count : 0
Track 19
Filename : /Users/bill/Desktop/19 Rameau, Jean-Philippe (1683 - 1764) - Que j'ai bien mérité la friodeur d'Orithie.flac
/Users/bill/Desktop/19 Rameau, Jean-Philippe (1683 - 1764) - Que j'ai bien mérité la friodeur d'Orithie.mp3
Pre-gap length : 00:04:46
Track gain : -3.05 dB
Peak : 0.774536
CRC32 hash (test run) : F542D996
CRC32 hash : F542D996
CRC32 hash (skip zero) : B959C7D0
AccurateRip v1 signature : 0AB39EF0
AccurateRip v2 signature : D3C06B0C
->Track not present in AccurateRip database.
Statistics
Read error : 0
Jitter error (maybe fixed) : 0
Retry sector count : 0
Damaged sector count : 0
Track 20
Filename : /Users/bill/Desktop/20 Rameau, Jean-Philippe (1683 - 1764) - Un amant tel que moi.flac
/Users/bill/Desktop/20 Rameau, Jean-Philippe (1683 - 1764) - Un amant tel que moi.mp3
Track gain : 2.71 dB
Peak : 0.549835
CRC32 hash (test run) : 010F7A1A
CRC32 hash : 010F7A1A
CRC32 hash (skip zero) : 433EB470
AccurateRip v1 signature : 70067888
AccurateRip v2 signature : 91C36894
->Track not present in AccurateRip database.
Statistics
Read error : 0
Jitter error (maybe fixed) : 0
Retry sector count : 0
Damaged sector count : 0
Track 21
Filename : /Users/bill/Desktop/21 Rameau, Jean-Philippe (1683 - 1764) - Peut être d'Orithie avec moins de douceur.flac
/Users/bill/Desktop/21 Rameau, Jean-Philippe (1683 - 1764) - Peut être d'Orithie avec moins de douceur.mp3
Track gain : 2.16 dB
Peak : 0.496094
CRC32 hash (test run) : 74C58E8C
CRC32 hash : 74C58E8C
CRC32 hash (skip zero) : D42282B8
AccurateRip v1 signature : 46B18CD8
AccurateRip v2 signature : 77E655BD
->Track not present in AccurateRip database.
Statistics
Read error : 0
Jitter error (maybe fixed) : 0
Retry sector count : 0
Damaged sector count : 0
Track 22
Filename : /Users/bill/Desktop/22 Rameau, Jean-Philippe (1683 - 1764) - Servez mes feux à votre tour.flac
/Users/bill/Desktop/22 Rameau, Jean-Philippe (1683 - 1764) - Servez mes feux à votre tour.mp3
Track gain : -3.64 dB
Peak : 0.963013
CRC32 hash (test run) : 47031A79
CRC32 hash : 47031A79
CRC32 hash (skip zero) : 1D488A22
AccurateRip v1 signature : B4BCD000
AccurateRip v2 signature : B1979C0B
->Track not present in AccurateRip database.
Statistics
Read error : 0
Jitter error (maybe fixed) : 0
Retry sector count : 0
Damaged sector count : 0
Track 23
Filename : /Users/bill/Desktop/23 Rameau, Jean-Philippe (1683 - 1764) - Après ces discours menaçants.flac
/Users/bill/Desktop/23 Rameau, Jean-Philippe (1683 - 1764) - Après ces discours menaçants.mp3
Track gain : 1.98 dB
Peak : 0.590820
CRC32 hash (test run) : 79734146
CRC32 hash : 79734146
CRC32 hash (skip zero) : CC1763BD
AccurateRip v1 signature : 475CED2D
AccurateRip v2 signature : CFB92F95
->Track not present in AccurateRip database.
Statistics
Read error : 0
Jitter error (maybe fixed) : 0
Retry sector count : 0
Damaged sector count : 0
Track 24
Filename : /Users/bill/Desktop/24 Rameau, Jean-Philippe (1683 - 1764) - On peut toujours dans l'amoureux mystère.flac
/Users/bill/Desktop/24 Rameau, Jean-Philippe (1683 - 1764) - On peut toujours dans l'amoureux mystère.mp3
Track gain : 2.14 dB
Peak : 0.654510
CRC32 hash (test run) : 4D4C9EFD
CRC32 hash : 4D4C9EFD
CRC32 hash (skip zero) : 4055AF71
AccurateRip v1 signature : 8CC07CE8
AccurateRip v2 signature : 6BF97E7C
->Track not present in AccurateRip database.
Statistics
Read error : 0
Jitter error (maybe fixed) : 0
Retry sector count : 0
Damaged sector count : 0
Track 25
Filename : /Users/bill/Desktop/25 Rameau, Jean-Philippe (1683 - 1764) - Prèt à voir immoler l'objet de sa tendresse.flac
/Users/bill/Desktop/25 Rameau, Jean-Philippe (1683 - 1764) - Prèt à voir immoler l'objet de sa tendresse.mp3
Pre-gap length : 00:04:35
Track gain : 1.63 dB
Peak : 0.594574
CRC32 hash (test run) : 6D661040
CRC32 hash : 6D661040
CRC32 hash (skip zero) : 4108C0B2
AccurateRip v1 signature : 50DC286B
AccurateRip v2 signature : D1980E97
->Track not present in AccurateRip database.
Statistics
Read error : 0
Jitter error (maybe fixed) : 0
Retry sector count : 0
Damaged sector count : 0
Track 26
Filename : /Users/bill/Desktop/26 Rameau, Jean-Philippe (1683 - 1764) - Faut-il qu'Amarillis périsse?.flac
/Users/bill/Desktop/26 Rameau, Jean-Philippe (1683 - 1764) - Faut-il qu'Amarillis périsse?.mp3
Track gain : 0.51 dB
Peak : 0.834076
CRC32 hash (test run) : CC4B091E
CRC32 hash : CC4B091E
CRC32 hash (skip zero) : 68E80CB1
AccurateRip v1 signature : C363D4F9
AccurateRip v2 signature : 4EE45637
->Track not present in AccurateRip database.
Statistics
Read error : 0
Jitter error (maybe fixed) : 0
Retry sector count : 0
Damaged sector count : 0
Track 27
Filename : /Users/bill/Desktop/27 Rameau, Jean-Philippe (1683 - 1764) - Mais c'est trop me livrer à ma douleur mortelle.flac
/Users/bill/Desktop/27 Rameau, Jean-Philippe (1683 - 1764) - Mais c'est trop me livrer à ma douleur mortelle.mp3
Track gain : -0.86 dB
Peak : 0.506500
CRC32 hash (test run) : 872486C5
CRC32 hash : 872486C5
CRC32 hash (skip zero) : 55228370
AccurateRip v1 signature : 07D5FF20
AccurateRip v2 signature : 991ED6B5
->Track not present in AccurateRip database.
Statistics
Read error : 0
Jitter error (maybe fixed) : 0
Retry sector count : 0
Damaged sector count : 0
Track 28
Filename : /Users/bill/Desktop/28 Rameau, Jean-Philippe (1683 - 1764) - L'amour qui règne dans votre âme.flac
/Users/bill/Desktop/28 Rameau, Jean-Philippe (1683 - 1764) - L'amour qui règne dans votre âme.mp3
Track gain : 0.91 dB
Peak : 0.961884
CRC32 hash (test run) : 589429FE
CRC32 hash : 589429FE
CRC32 hash (skip zero) : 87A0D7BB
AccurateRip v1 signature : FF58B82A
AccurateRip v2 signature : C01A1FB4
->Track not present in AccurateRip database.
Statistics
Read error : 0
Jitter error (maybe fixed) : 0
Retry sector count : 0
Damaged sector count : 0
Track 29
Filename : /Users/bill/Desktop/29 Rameau, Jean-Philippe (1683 - 1764) - Cependant à l'autel le Berger se présente.flac
/Users/bill/Desktop/29 Rameau, Jean-Philippe (1683 - 1764) - Cependant à l'autel le Berger se présente.mp3
Track gain : 2.53 dB
Peak : 0.431030
CRC32 hash (test run) : F12B4CA7
CRC32 hash : F12B4CA7
CRC32 hash (skip zero) : F7210522
AccurateRip v1 signature : D3E1FE65
AccurateRip v2 signature : 998506D9
->Track not present in AccurateRip database.
Statistics
Read error : 0
Jitter error (maybe fixed) : 0
Retry sector count : 0
Damaged sector count : 0
Track 30
Filename : /Users/bill/Desktop/30 Rameau, Jean-Philippe (1683 - 1764) - Charmant Amour, sous ta puissance.flac
/Users/bill/Desktop/30 Rameau, Jean-Philippe (1683 - 1764) - Charmant Amour, sous ta puissance.mp3
Track gain : 0.48 dB
Peak : 0.961975
CRC32 hash (test run) : 43D6D10B
CRC32 hash : 43D6D10B
CRC32 hash (skip zero) : BCAB0385
AccurateRip v1 signature : F1F63BFA
AccurateRip v2 signature : 32DB01DF
->Track not present in AccurateRip database.
Statistics
Read error : 0
Jitter error (maybe fixed) : 0
Retry sector count : 0
Damaged sector count : 0
No errors occurred
End of status report

Содержание индексной карты (.CUE)

TITLE "Les Amants Trahis"
PERFORMER "Hélène Guilmette, Philippe Sly, Luc Beauséjour"
REM GENRE "Classique"
REM DATE "2013"
REM DISCID 970EC41E
REM REPLAYGAIN_ALBUM_GAIN -0.41 dB
REM REPLAYGAIN_ALBUM_PEAK 0.966339
FILE "01 Rameau, Jean-Philippe (1683 - 1764) - Prélude: Muses, dans vos divins concerts.flac" WAVE
TRACK 01 AUDIO
TITLE "Prélude: Muses, dans vos divins concerts"
PERFORMER "Rameau, Jean-Philippe (1683 - 1764)"
SONGWRITER "Rameau"
ISRC CALC41300101
REM REPLAYGAIN_TRACK_GAIN -0.68 dB
REM REPLAYGAIN_TRACK_PEAK 0.919159
INDEX 01 00:00:00
FILE "02 Rameau, Jean-Philippe (1683 - 1764) - Volez, tyrans des airs, Aquilons furieux.flac" WAVE
TRACK 02 AUDIO
TITLE "Volez, tyrans des airs, Aquilons furieux"
PERFORMER "Rameau, Jean-Philippe (1683 - 1764)"
SONGWRITER "Rameau"
ISRC CALC41300102
REM REPLAYGAIN_TRACK_GAIN -3.07 dB
REM REPLAYGAIN_TRACK_PEAK 0.963715
INDEX 01 00:00:00
FILE "03 Rameau, Jean-Philippe (1683 - 1764) - Neptune en ce moment, au gré de sa fureur.flac" WAVE
TRACK 03 AUDIO
TITLE "Neptune en ce moment, au gré de sa fureur"
PERFORMER "Rameau, Jean-Philippe (1683 - 1764)"
SONGWRITER "Rameau"
ISRC CALC41300103
REM REPLAYGAIN_TRACK_GAIN -5.67 dB
REM REPLAYGAIN_TRACK_PEAK 0.966339
INDEX 01 00:00:00
FILE "04 Rameau, Jean-Philippe (1683 - 1764) - Partez, volez, brillants éclairs!.flac" WAVE
TRACK 04 AUDIO
TITLE "Partez, volez, brillants éclairs!"
PERFORMER "Rameau, Jean-Philippe (1683 - 1764)"
SONGWRITER "Rameau"
ISRC CALC41300104
REM REPLAYGAIN_TRACK_GAIN -4.62 dB
REM REPLAYGAIN_TRACK_PEAK 0.964264
INDEX 01 00:00:00
FILE "05 Rameau, Jean-Philippe (1683 - 1764) - Quel aveugle transport vous guide?.flac" WAVE
TRACK 05 AUDIO
TITLE "Quel aveugle transport vous guide?"
PERFORMER "Rameau, Jean-Philippe (1683 - 1764)"
SONGWRITER "Rameau"
ISRC CALC41300105
REM REPLAYGAIN_TRACK_GAIN -0.86 dB
REM REPLAYGAIN_TRACK_PEAK 0.669708
INDEX 01 00:00:00
FILE "06 Rameau, Jean-Philippe (1683 - 1764) - Beautés qu'un sort heureux destine.flac" WAVE
TRACK 06 AUDIO
TITLE "Beautés qu'un sort heureux destine"
PERFORMER "Rameau, Jean-Philippe (1683 - 1764)"
SONGWRITER "Rameau"
ISRC CALC41300106
REM REPLAYGAIN_TRACK_GAIN 2.78 dB
REM REPLAYGAIN_TRACK_PEAK 0.620026
INDEX 01 00:00:00
TRACK 07 AUDIO
TITLE "Écho! Combien de fois ai-je su vous instruire"
PERFORMER "Rameau, Jean-Philippe (1683 - 1764)"
SONGWRITER "Rameau"
ISRC CALC41300107
REM REPLAYGAIN_TRACK_GAIN 2.12 dB
REM REPLAYGAIN_TRACK_PEAK 0.950378
INDEX 00 02:34:30
FILE "07 Rameau, Jean-Philippe (1683 - 1764) - Écho! Combien de fois ai-je su vous instruire.flac" WAVE
INDEX 01 00:00:00
FILE "08 Rameau, Jean-Philippe (1683 - 1764) - Ma bergère a trahi sa foi.flac" WAVE
TRACK 08 AUDIO
TITLE "Ma bergère a trahi sa foi"
PERFORMER "Rameau, Jean-Philippe (1683 - 1764)"
SONGWRITER "Rameau"
ISRC CALC41300108
REM REPLAYGAIN_TRACK_GAIN -3.10 dB
REM REPLAYGAIN_TRACK_PEAK 0.924377
INDEX 01 00:00:00
FILE "09 Rameau, Jean-Philippe (1683 - 1764) - Quoi! Vous riez d'une telle disgrâce?.flac" WAVE
TRACK 09 AUDIO
TITLE "Quoi! Vous riez d'une telle disgrâce?"
PERFORMER "Rameau, Jean-Philippe (1683 - 1764)"
SONGWRITER "Rameau"
ISRC CALC41300109
REM REPLAYGAIN_TRACK_GAIN -1.14 dB
REM REPLAYGAIN_TRACK_PEAK 0.749756
INDEX 01 00:00:00
FILE "10 Rameau, Jean-Philippe (1683 - 1764) - Lorsque malgré son inconstance.flac" WAVE
TRACK 10 AUDIO
TITLE "Lorsque malgré son inconstance"
PERFORMER "Rameau, Jean-Philippe (1683 - 1764)"
SONGWRITER "Rameau"
ISRC CALC41300110
REM REPLAYGAIN_TRACK_GAIN -2.08 dB
REM REPLAYGAIN_TRACK_PEAK 0.902618
INDEX 01 00:00:00
FILE "11 Rameau, Jean-Philippe (1683 - 1764) - Sont-ce donc là les lois de l'amoureux empire?.flac" WAVE
TRACK 11 AUDIO
TITLE "Sont-ce donc là les lois de l'amoureux empire?"
PERFORMER "Rameau, Jean-Philippe (1683 - 1764)"
SONGWRITER "Rameau"
ISRC CALC41300111
REM REPLAYGAIN_TRACK_GAIN -0.05 dB
REM REPLAYGAIN_TRACK_PEAK 0.907745
INDEX 01 00:00:00
FILE "12 Rameau, Jean-Philippe (1683 - 1764) - Quand on perd ce qu'on aime.flac" WAVE
TRACK 12 AUDIO
TITLE "Quand on perd ce qu'on aime"
PERFORMER "Rameau, Jean-Philippe (1683 - 1764)"
SONGWRITER "Rameau"
ISRC CALC41300112
REM REPLAYGAIN_TRACK_GAIN 0.60 dB
REM REPLAYGAIN_TRACK_PEAK 0.693146
INDEX 01 00:00:00
FILE "13 Rameau, Jean-Philippe (1683 - 1764) - Non, immolons des jours que le sort a proscrits.flac" WAVE
TRACK 13 AUDIO
TITLE "Non, immolons des jours que le sort a proscrits"
PERFORMER "Rameau, Jean-Philippe (1683 - 1764)"
SONGWRITER "Rameau"
ISRC CALC41300113
REM REPLAYGAIN_TRACK_GAIN 1.60 dB
REM REPLAYGAIN_TRACK_PEAK 0.450287
INDEX 01 00:00:00
FILE "14 Rameau, Jean-Philippe (1683 - 1764) - Le désespoir n'est que folie.flac" WAVE
TRACK 14 AUDIO
TITLE "Le désespoir n'est que folie"
PERFORMER "Rameau, Jean-Philippe (1683 - 1764)"
SONGWRITER "Rameau"
ISRC CALC41300114
REM REPLAYGAIN_TRACK_GAIN 1.23 dB
REM REPLAYGAIN_TRACK_PEAK 0.725464
INDEX 01 00:00:00
FILE "15 Rameau, Jean-Philippe (1683 - 1764) - Pardonne, Amour.flac" WAVE
TRACK 15 AUDIO
TITLE "Pardonne, Amour"
PERFORMER "Rameau, Jean-Philippe (1683 - 1764)"
SONGWRITER "Rameau"
ISRC CALC41300115
REM REPLAYGAIN_TRACK_GAIN -3.17 dB
REM REPLAYGAIN_TRACK_PEAK 0.881531
INDEX 01 00:00:00
FILE "16 Rameau, Jean-Philippe (1683 - 1764) - Du dieu d'amour.flac" WAVE
TRACK 16 AUDIO
TITLE "Du dieu d'amour"
PERFORMER "Rameau, Jean-Philippe (1683 - 1764)"
SONGWRITER "Rameau"
ISRC CALC41300116
REM REPLAYGAIN_TRACK_GAIN 4.91 dB
REM REPLAYGAIN_TRACK_PEAK 0.596161
INDEX 01 00:00:00
FILE "17 Rameau, Jean-Philippe (1683 - 1764) - Ne finirez vous point de si honteux regrets?.flac" WAVE
TRACK 17 AUDIO
TITLE "Ne finirez vous point de si honteux regrets?"
PERFORMER "Rameau, Jean-Philippe (1683 - 1764)"
SONGWRITER "Rameau"
ISRC CALC41300117
REM REPLAYGAIN_TRACK_GAIN 0.70 dB
REM REPLAYGAIN_TRACK_PEAK 0.582520
INDEX 01 00:00:00
FILE "18 Rameau, Jean-Philippe (1683 - 1764) - Quend une volage beauté.flac" WAVE
TRACK 18 AUDIO
TITLE "Quend une volage beauté"
PERFORMER "Rameau, Jean-Philippe (1683 - 1764)"
SONGWRITER "Rameau"
ISRC CALC41300118
REM REPLAYGAIN_TRACK_GAIN -0.01 dB
REM REPLAYGAIN_TRACK_PEAK 0.962738
INDEX 01 00:00:00
TRACK 19 AUDIO
TITLE "Que j'ai bien mérité la friodeur d'Orithie"
PERFORMER "Rameau, Jean-Philippe (1683 - 1764)"
SONGWRITER "Rameau"
ISRC CALC41300119
REM REPLAYGAIN_TRACK_GAIN -3.05 dB
REM REPLAYGAIN_TRACK_PEAK 0.774536
INDEX 00 05:06:26
FILE "19 Rameau, Jean-Philippe (1683 - 1764) - Que j'ai bien mérité la friodeur d'Orithie.flac" WAVE
INDEX 01 00:00:00
FILE "20 Rameau, Jean-Philippe (1683 - 1764) - Un amant tel que moi.flac" WAVE
TRACK 20 AUDIO
TITLE "Un amant tel que moi"
PERFORMER "Rameau, Jean-Philippe (1683 - 1764)"
SONGWRITER "Rameau"
ISRC CALC41300120
REM REPLAYGAIN_TRACK_GAIN 2.71 dB
REM REPLAYGAIN_TRACK_PEAK 0.549835
INDEX 01 00:00:00
FILE "21 Rameau, Jean-Philippe (1683 - 1764) - Peut être d'Orithie avec moins de douceur.flac" WAVE
TRACK 21 AUDIO
TITLE "Peut être d'Orithie avec moins de douceur"
PERFORMER "Rameau, Jean-Philippe (1683 - 1764)"
SONGWRITER "Rameau"
ISRC CALC41300121
REM REPLAYGAIN_TRACK_GAIN 2.16 dB
REM REPLAYGAIN_TRACK_PEAK 0.496094
INDEX 01 00:00:00
FILE "22 Rameau, Jean-Philippe (1683 - 1764) - Servez mes feux à votre tour.flac" WAVE
TRACK 22 AUDIO
TITLE "Servez mes feux à votre tour"
PERFORMER "Rameau, Jean-Philippe (1683 - 1764)"
SONGWRITER "Rameau"
ISRC CALC41300122
REM REPLAYGAIN_TRACK_GAIN -3.64 dB
REM REPLAYGAIN_TRACK_PEAK 0.963013
INDEX 01 00:00:00
FILE "23 Rameau, Jean-Philippe (1683 - 1764) - Après ces discours menaçants.flac" WAVE
TRACK 23 AUDIO
TITLE "Après ces discours menaçants"
PERFORMER "Rameau, Jean-Philippe (1683 - 1764)"
SONGWRITER "Rameau"
ISRC CALC41300123
REM REPLAYGAIN_TRACK_GAIN 1.98 dB
REM REPLAYGAIN_TRACK_PEAK 0.590820
INDEX 01 00:00:00
FILE "24 Rameau, Jean-Philippe (1683 - 1764) - On peut toujours dans l'amoureux mystère.flac" WAVE
TRACK 24 AUDIO
TITLE "On peut toujours dans l'amoureux mystère"
PERFORMER "Rameau, Jean-Philippe (1683 - 1764)"
SONGWRITER "Rameau"
ISRC CALC41300124
REM REPLAYGAIN_TRACK_GAIN 2.14 dB
REM REPLAYGAIN_TRACK_PEAK 0.654510
INDEX 01 00:00:00
TRACK 25 AUDIO
TITLE "Prèt à voir immoler l'objet de sa tendresse"
PERFORMER "Rameau, Jean-Philippe (1683 - 1764)"
SONGWRITER "Rameau"
ISRC CALC41300125
REM REPLAYGAIN_TRACK_GAIN 1.63 dB
REM REPLAYGAIN_TRACK_PEAK 0.594574
INDEX 00 04:07:47
FILE "25 Rameau, Jean-Philippe (1683 - 1764) - Prèt à voir immoler l'objet de sa tendresse.flac" WAVE
INDEX 01 00:00:00
FILE "26 Rameau, Jean-Philippe (1683 - 1764) - Faut-il qu'Amarillis périsse?.flac" WAVE
TRACK 26 AUDIO
TITLE "Faut-il qu'Amarillis périsse?"
PERFORMER "Rameau, Jean-Philippe (1683 - 1764)"
SONGWRITER "Rameau"
ISRC CALC41300126
REM REPLAYGAIN_TRACK_GAIN 0.51 dB
REM REPLAYGAIN_TRACK_PEAK 0.834076
INDEX 01 00:00:00
FILE "27 Rameau, Jean-Philippe (1683 - 1764) - Mais c'est trop me livrer à ma douleur mortelle.flac" WAVE
TRACK 27 AUDIO
TITLE "Mais c'est trop me livrer à ma douleur mortelle"
PERFORMER "Rameau, Jean-Philippe (1683 - 1764)"
SONGWRITER "Rameau"
ISRC CALC41300127
REM REPLAYGAIN_TRACK_GAIN -0.86 dB
REM REPLAYGAIN_TRACK_PEAK 0.506500
INDEX 01 00:00:00
FILE "28 Rameau, Jean-Philippe (1683 - 1764) - L'amour qui règne dans votre âme.flac" WAVE
TRACK 28 AUDIO
TITLE "L'amour qui règne dans votre âme"
PERFORMER "Rameau, Jean-Philippe (1683 - 1764)"
SONGWRITER "Rameau"
ISRC CALC41300128
REM REPLAYGAIN_TRACK_GAIN 0.91 dB
REM REPLAYGAIN_TRACK_PEAK 0.961884
INDEX 01 00:00:00
FILE "29 Rameau, Jean-Philippe (1683 - 1764) - Cependant à l'autel le Berger se présente.flac" WAVE
TRACK 29 AUDIO
TITLE "Cependant à l'autel le Berger se présente"
PERFORMER "Rameau, Jean-Philippe (1683 - 1764)"
SONGWRITER "Rameau"
ISRC CALC41300129
REM REPLAYGAIN_TRACK_GAIN 2.53 dB
REM REPLAYGAIN_TRACK_PEAK 0.431030
INDEX 01 00:00:00
FILE "30 Rameau, Jean-Philippe (1683 - 1764) - Charmant Amour, sous ta puissance.flac" WAVE
TRACK 30 AUDIO
TITLE "Charmant Amour, sous ta puissance"
PERFORMER "Rameau, Jean-Philippe (1683 - 1764)"
SONGWRITER "Rameau"
ISRC CALC41300130
REM REPLAYGAIN_TRACK_GAIN 0.48 dB
REM REPLAYGAIN_TRACK_PEAK 0.961975
INDEX 01 00:00:00



Показать сообщения:    

Текущее время: 04-Дек 00:53

Часовой пояс: UTC + 3


Вы не можете начинать темы
Вы не можете отвечать на сообщения
Вы не можете редактировать свои сообщения
Вы не можете удалять свои сообщения
Вы не можете голосовать в опросах
Вы не можете прикреплять файлы к сообщениям
Вы не можете скачивать файлы