(Classical) Johann Christian Bach - Zanaida - Sara Hershkowitz, Marina De Liso, Pierrick Boisseau, Chantal Santon, Daphné Touchais, Vannina Santoni, Julie Fioretti; Opera Fuoco, David Stern - 2012, FLAC (image+.cue) lossless


 

[Цитировать]

Johann Christian Bach - Zanaida - Sara Hershkowitz, Marina De Liso, Pierrick Boisseau, Chantal Santon, Daphné Touchais, Vannina Santoni, Julie Fioretti; Opera Fuoco, David Stern
Жанр: Classical
Страна-производитель диска: France
Год издания диска: 2012
Издатель (лейбл): Zig-Zag Territoires
Номер по каталогу: ZZT312
Дата записи: 2012
Аудиокодек: FLAC
Тип рипа: image+.cue
Битрейт аудио: lossless
Продолжительность: 128:59
Источник: собственный рип
Наличие сканов в содержимом раздачи: да
Треклист:
Johann Christian Bach (1735 - 1782)
Zanaida (1763)
Opera in 3 acts
CD1
[1]-[3] Sinfonia
[4]-[19] Act I
[20]-[27] Act II
CD2
[1]-[11] Act II (continued)
[12]-[25] Act III
Исполнители:
Zanaida Sara Hershkowitz soprano
Tamasse Marina De Liso mezzo-soprano
Mustafa Pierrick Boisseau baryton
Roselane Chantal Santon soprano
Cisseo Daphné Touchais soprano
Osira Vannina Santoni soprano
Silvera Julie Fioretti soprano
Aglatida Majdouline Zerari mezzo-soprano
Gianguir Jeffrey Thompson tenor
Opera Fuoco
David Stern

Лог создания рипа: CD1

Exact Audio Copy V1.0 beta 3 from 29. August 2011
EAC extraction logfile from 9. June 2015, 21:37
Opera Fuoco, David Stern / J.C.Bach - Zanaida - CD1
Used drive : HL-DT-STDVDRAM GU70N Adapter: 0 ID: 0
Read mode : Secure
Utilize accurate stream : Yes
Defeat audio cache : Yes
Make use of C2 pointers : No
Read offset correction : 48
Overread into Lead-In and Lead-Out : No
Fill up missing offset samples with silence : Yes
Delete leading and trailing silent blocks : No
Null samples used in CRC calculations : Yes
Used interface : Native Win32 interface for Win NT & 2000
Used output format : User Defined Encoder
Selected bitrate : 128 kBit/s
Quality : High
Add ID3 tag : No
Command line compressor : C:\Program Files (x86)\Exact Audio Copy\Flac\flac.exe
Additional command line options : -V -8 -T "Date=%year%" -T "Genre=%genre%" %source%
TOC of the extracted CD
Track | Start | Length | Start sector | End sector
---------------------------------------------------------
1 | 0:00.00 | 2:38.65 | 0 | 11914
2 | 2:38.65 | 1:28.05 | 11915 | 18519
3 | 4:06.70 | 0:56.65 | 18520 | 22784
4 | 5:03.60 | 1:40.23 | 22785 | 30307
5 | 6:44.08 | 2:26.28 | 30308 | 41285
6 | 9:10.36 | 0:41.64 | 41286 | 44424
7 | 9:52.25 | 3:38.48 | 44425 | 60822
8 | 13:30.73 | 0:45.06 | 60823 | 64203
9 | 14:16.04 | 3:40.58 | 64204 | 80761
10 | 17:56.62 | 3:39.53 | 80762 | 97239
11 | 21:36.40 | 3:42.16 | 97240 | 113905
12 | 25:18.56 | 1:35.01 | 113906 | 121031
13 | 26:53.57 | 2:02.74 | 121032 | 130255
14 | 28:56.56 | 2:07.69 | 130256 | 139849
15 | 31:04.50 | 4:35.32 | 139850 | 160506
16 | 35:40.07 | 1:11.07 | 160507 | 165838
17 | 36:51.14 | 3:23.58 | 165839 | 181121
18 | 40:14.72 | 2:07.70 | 181122 | 190716
19 | 42:22.67 | 4:14.52 | 190717 | 209818
20 | 46:37.44 | 1:54.69 | 209819 | 218437
21 | 48:32.38 | 3:04.06 | 218438 | 232243
22 | 51:36.44 | 1:19.70 | 232244 | 238238
23 | 52:56.39 | 3:23.19 | 238239 | 253482
24 | 56:19.58 | 1:33.48 | 253483 | 260505
25 | 57:53.31 | 3:14.47 | 260506 | 275102
26 | 61:08.03 | 1:48.52 | 275103 | 283254
27 | 62:56.55 | 3:57.16 | 283255 | 301045
Range status and errors
Selected range
Filename C:\temp\J.C.Bach - Zanaida\CD1\J.C.Bach - Zanaida - CD1.wav
Peak level 98.2 %
Extraction speed 2.2 X
Range quality 100.0 %
Test CRC 3E69A1BA
Copy CRC 3E69A1BA
Copy OK
No errors occurred
AccurateRip summary
Track 1 accurately ripped (confidence 4) [8A361874] (AR v2)
Track 2 accurately ripped (confidence 4) [116A2B35] (AR v2)
Track 3 accurately ripped (confidence 4) [103A6DFE] (AR v2)
Track 4 accurately ripped (confidence 4) [32940690] (AR v2)
Track 5 accurately ripped (confidence 4) [53696D68] (AR v2)
Track 6 accurately ripped (confidence 4) [1AE87F69] (AR v2)
Track 7 accurately ripped (confidence 4) [212481AC] (AR v2)
Track 8 accurately ripped (confidence 4) [8A0E9CF5] (AR v2)
Track 9 accurately ripped (confidence 4) [1588FC06] (AR v2)
Track 10 accurately ripped (confidence 4) [8F2B4727] (AR v2)
Track 11 accurately ripped (confidence 4) [DD2117E5] (AR v2)
Track 12 accurately ripped (confidence 4) [9196FAA8] (AR v2)
Track 13 accurately ripped (confidence 4) [BEB350EB] (AR v2)
Track 14 accurately ripped (confidence 4) [E8643E52] (AR v2)
Track 15 accurately ripped (confidence 4) [3A93887B] (AR v2)
Track 16 accurately ripped (confidence 4) [15ECBFD0] (AR v2)
Track 17 accurately ripped (confidence 4) [7F17DC92] (AR v2)
Track 18 accurately ripped (confidence 4) [EFD563D5] (AR v2)
Track 19 accurately ripped (confidence 4) [091D6F19] (AR v2)
Track 20 accurately ripped (confidence 4) [4ADA77AA] (AR v2)
Track 21 accurately ripped (confidence 4) [778A6A0F] (AR v2)
Track 22 accurately ripped (confidence 4) [C918436E] (AR v2)
Track 23 accurately ripped (confidence 4) [6F12AE33] (AR v2)
Track 24 accurately ripped (confidence 4) [1B002747] (AR v2)
Track 25 accurately ripped (confidence 4) [C9BD851A] (AR v2)
Track 26 accurately ripped (confidence 4) [8A5620C6] (AR v2)
Track 27 accurately ripped (confidence 4) [4790B3FB] (AR v2)
All tracks accurately ripped
End of status report
==== Log checksum 0D1AEDE720D6CECBFFB7178B112147170F556E77F509A7DFC0463301F1ADC41C ====

Лог создания рипа: CD2

Exact Audio Copy V1.0 beta 3 from 29. August 2011
EAC extraction logfile from 9. June 2015, 22:12
Opera Fuoco, David Stern / J.C.Bach - Zanaida - CD2
Used drive : HL-DT-STDVDRAM GU70N Adapter: 0 ID: 0
Read mode : Secure
Utilize accurate stream : Yes
Defeat audio cache : Yes
Make use of C2 pointers : No
Read offset correction : 48
Overread into Lead-In and Lead-Out : No
Fill up missing offset samples with silence : Yes
Delete leading and trailing silent blocks : No
Null samples used in CRC calculations : Yes
Used interface : Native Win32 interface for Win NT & 2000
Used output format : User Defined Encoder
Selected bitrate : 128 kBit/s
Quality : High
Add ID3 tag : No
Command line compressor : C:\Program Files (x86)\Exact Audio Copy\Flac\flac.exe
Additional command line options : -V -8 -T "Date=%year%" -T "Genre=%genre%" %source%
TOC of the extracted CD
Track | Start | Length | Start sector | End sector
---------------------------------------------------------
1 | 0:00.00 | 3:24.71 | 0 | 15370
2 | 3:24.71 | 2:26.21 | 15371 | 26341
3 | 5:51.17 | 2:36.66 | 26342 | 38107
4 | 8:28.08 | 1:03.30 | 38108 | 42862
5 | 9:31.38 | 2:49.25 | 42863 | 55562
6 | 12:20.63 | 0:46.44 | 55563 | 59056
7 | 13:07.32 | 2:56.39 | 59057 | 72295
8 | 16:03.71 | 5:02.47 | 72296 | 94992
9 | 21:06.43 | 4:20.21 | 94993 | 114513
10 | 25:26.64 | 0:23.24 | 114514 | 116262
11 | 25:50.13 | 2:58.35 | 116263 | 129647
12 | 28:48.48 | 1:26.09 | 129648 | 136106
13 | 30:14.57 | 2:57.45 | 136107 | 149426
14 | 33:12.27 | 1:23.38 | 149427 | 155689
15 | 34:35.65 | 2:25.26 | 155690 | 166590
16 | 37:01.16 | 3:21.44 | 166591 | 181709
17 | 40:22.60 | 4:49.31 | 181710 | 203415
18 | 45:12.16 | 0:50.27 | 203416 | 207192
19 | 46:02.43 | 2:24.40 | 207193 | 218032
20 | 48:27.08 | 1:13.24 | 218033 | 223531
21 | 49:40.32 | 2:25.07 | 223532 | 234413
22 | 52:05.39 | 1:27.19 | 234414 | 240957
23 | 53:32.58 | 3:02.51 | 240958 | 254658
24 | 56:35.34 | 2:31.26 | 254659 | 266009
25 | 59:06.60 | 2:55.27 | 266010 | 279161
Range status and errors
Selected range
Filename C:\temp\J.C.Bach - Zanaida\CD2\J.C.Bach - Zanaida - CD2.wav
Peak level 93.6 %
Extraction speed 5.2 X
Range quality 100.0 %
Test CRC 92F3FB66
Copy CRC 92F3FB66
Copy OK
No errors occurred
AccurateRip summary
Track 1 accurately ripped (confidence 4) [B558FB8F] (AR v2)
Track 2 accurately ripped (confidence 4) [ECA4E43D] (AR v2)
Track 3 accurately ripped (confidence 4) [73581C62] (AR v2)
Track 4 accurately ripped (confidence 4) [94977487] (AR v2)
Track 5 accurately ripped (confidence 4) [4E45F74A] (AR v2)
Track 6 accurately ripped (confidence 4) [1D74E500] (AR v2)
Track 7 accurately ripped (confidence 4) [F35CDD55] (AR v2)
Track 8 accurately ripped (confidence 4) [6F7AF636] (AR v2)
Track 9 accurately ripped (confidence 4) [C626EA73] (AR v2)
Track 10 accurately ripped (confidence 4) [63D51180] (AR v2)
Track 11 accurately ripped (confidence 4) [39E0B1D2] (AR v2)
Track 12 accurately ripped (confidence 4) [ADFFAE2E] (AR v2)
Track 13 accurately ripped (confidence 4) [4FFAFD94] (AR v2)
Track 14 accurately ripped (confidence 4) [49DBF2DA] (AR v2)
Track 15 accurately ripped (confidence 4) [1DEE4C97] (AR v2)
Track 16 accurately ripped (confidence 4) [C595F769] (AR v2)
Track 17 accurately ripped (confidence 4) [A2A799A9] (AR v2)
Track 18 accurately ripped (confidence 4) [2ADA6FAC] (AR v2)
Track 19 accurately ripped (confidence 4) [5087E16C] (AR v2)
Track 20 accurately ripped (confidence 4) [2150F972] (AR v2)
Track 21 accurately ripped (confidence 4) [F7822B5A] (AR v2)
Track 22 accurately ripped (confidence 4) [552B178A] (AR v2)
Track 23 accurately ripped (confidence 4) [1E086B0D] (AR v2)
Track 24 accurately ripped (confidence 4) [CA78F3D3] (AR v2)
Track 25 accurately ripped (confidence 4) [1E892786] (AR v2)
All tracks accurately ripped
End of status report
==== Log checksum C45BB52E3AC2AA679FA2CD0B4C3704AFFF54E17D212131C09BC8796BBE0A9A16 ====



Показать сообщения:    

Текущее время: 05-Дек 21:34

Часовой пояс: UTC + 3


Вы не можете начинать темы
Вы не можете отвечать на сообщения
Вы не можете редактировать свои сообщения
Вы не можете удалять свои сообщения
Вы не можете голосовать в опросах
Вы не можете прикреплять файлы к сообщениям
Вы не можете скачивать файлы