[TR24][OF][Haydn 2032, Vol. 2: Il Filosofo] Franz Joseph Haydn: Symphonies Nos. 22, 46, 47; Wilhelm Friedemann Bach: Symphony in F major (Il Giardino Armonico; Giovanni Antonini) - 2015 (Classical)


Статистика раздачи [Обновить пиров]
Размер:  1.27 GB   |    Зарегистрирован:  8 месяцев 19 дней   |    Скачан:  0 раз

Полного источника не было: Никогда

 
   
 
 
 

[Цитировать]

Haydn 2032, Vol. 2: Il Filosofo
Il Giardino Armonico · Giovanni Antonini
-Год издания: 2015 | Жанр: Classical
Издатель: Alpha Productions | Продолжительность: 01:15:19
Наличие сканов: Sleeve, Digital Booklet- -Il Giardino Armonico
Giovanni Antonini, conductor
Recorded: Teldex Studio Berlin, 16-20 June 2014-Контейнер: FLAC (*.flac) | Тип рипа: tracks
Разрядность: 24bit / 96kHz | Количество каналов: 2.0
-Треклист
Franz Joseph Haydn (1732-1809)
Symphony No. 46 in B Major, Hob. I:46
01.I. Vivace (7:34)
02. II. Poco adagio (7:28)
03. III. Menuet (Allegretto) - Trio (2:06)
04. IV. Finale (Presto e scherzando) (5:58)
Symphony No. 22 in E-Flat Major, Hob. I:22 "Der Philosoph"
05. I. Adagio (7:19)
06. II. Presto (4:06)
07. III. Menuetto & Trio (2:23)
08. IV. Finale (Presto) (2:55)
Wilhelm Friedemann Bach (1710-1784)
Symphony in F Major, BR C 2 / Fk. 67
09. I. Vivace (4:16)
10. II. Andante (3:52)
11. III. Allegro (3:15)
12. IV. Menuetto I - Menuetto II (2:13)
Franz Joseph Haydn
Symphony No. 47 in G Major, Hob. I:47
13. I. [Allegro] (7:51)
14. II. Un poco adagio, cantabile (6:35)
15. III. Menuet & Trio (2:00)
16. IV. Finale (Presto assai) (5:27)

О релизе


For this second volume in the Haydn 2032 project, the complete recording of his symphonies, Giovanni Antonini has chosen to put forward the Symphony Der Philosoph. He associates with it a symphony by Wilhelm Friedemann Bach, eldest son of the Kantor of Leipzig, who is generally considered the most gifted of his sons. Different reasons brought these two great composers the originality and sometimes eccentricity that characterize their works, one suffering from the fame of his father, the other from his own genius. Whereas Haydn’s symphonies differentiate themselves by form, orchestration and keys, W. F. Bach’s begins in the style of a Baroque overture, gradually turning into a tempestuous piece and perhaps already reflecting the transition from a ‘Golden Age’ to the more tormented world that will follow the Age of Enlightenment.

ОтчётыДинамический диапазон

foobar2000 1.2.2 / Dynamic Range Meter 1.1.1
log date: 2015-06-17 13:40:14
--------------------------------------------------------------------------------
Analyzed: Il Giardino Armonico, Giovanni Antonini / Haydn 2032, Vol. 2: Il filosofo
--------------------------------------------------------------------------------
DR Peak RMS Duration Track
--------------------------------------------------------------------------------
DR12 -0.80 dB -18.24 dB 7:34 ?-Symphony No. 46 in B Major, Hob. I:46 - I. Vivace
DR13 -12.23 dB -31.27 dB 7:28 ?-Symphony No. 46 in B Major, Hob. I:46 - II. Poco adagio
DR11 -4.61 dB -21.05 dB 2:06 ?-Symphony No. 46 in B Major, Hob. I:46 - III. Menuet (Allegretto) - Trio
DR14 -0.30 dB -20.49 dB 5:58 ?-Symphony No. 46 in B Major, Hob. I:46 - IV. Finale (Presto e scherzando)
DR11 -7.94 dB -25.67 dB 7:19 ?-Symphony No. 22 in E-Flat Major, Hob. I:22 "Der Philosoph" - I. Adagio
DR14 -5.74 dB -23.09 dB 4:06 ?-Symphony No. 22 in E-Flat Major, Hob. I:22 "Der Philosoph" - II. Presto
DR14 -6.31 dB -24.66 dB 2:23 ?-Symphony No. 22 in E-Flat Major, Hob. I:22 "Der Philosoph" - III. Menuetto & Trio
DR13 -6.14 dB -21.91 dB 2:55 ?-Symphony No. 22 in E-Flat Major, Hob. I:22 "Der Philosoph" - IV. Finale (Presto)
DR16 -4.95 dB -24.53 dB 4:16 ?-Symphony in F Major, BR C 2 / Fk. 67 - I. Vivace
DR14 -8.41 dB -28.29 dB 3:52 ?-Symphony in F Major, BR C 2 / Fk. 67 - II. Andante
DR14 -5.66 dB -23.85 dB 3:15 ?-Symphony in F Major, BR C 2 / Fk. 67 - III. Allegro
DR13 -8.91 dB -27.92 dB 2:13 ?-Symphony in F Major, BR C 2 / Fk. 67 - IV. Menuetto I - Menuetto II
DR14 -0.30 dB -18.58 dB 7:51 ?-Symphony No. 47 in G Major, Hob. I:47 - I. [Allegro]
DR12 -8.78 dB -27.07 dB 6:35 ?-Symphony No. 47 in G Major, Hob. I:47 - II. Un poco adagio, cantabile
DR14 -3.96 dB -22.12 dB 2:00 ?-Symphony No. 47 in G Major, Hob. I:47 - III. Menuet & Trio
DR13 -0.30 dB -18.98 dB 5:27 ?-Symphony No. 47 in G Major, Hob. I:47 - IV. Finale (Presto assai)
--------------------------------------------------------------------------------
Number of tracks: 16
Official DR value: DR13
Samplerate: 96000 Hz
Channels: 2
Bits per sample: 24
Bitrate: 2440 kbps
Codec: FLAC
================================================================================

Скриншот спектра частот

Доп. информация

При скачивании, если необходимо, переименуйте папку, в которой будет находиться альбомБольшая просьба к скачавшим поддерживать раздачу! Помогайте другим, ведь вам тоже может понадобиться помощь!Не забываем говорить "Спасибо"!Комментарии приветствуются!
Haydn 2032 Hi-Res
[teatrix.ru].t21485.torrent 
Торрент: Зарегистрирован [ 2016-03-20 12:24 ] · D1C41459FC7840C43D6D34FB297939EB019D3534

Скачать .torrent

Скачать

15 KB

Статус: проверено
Скачан: 0 раз
Размер: 1.27 GB
terms.php



Быстрый ответ

Имя:

      
Для отправки сообщений необходимо включить JavaScript
Показать сообщения:    

Текущее время: 09-Дек 06:53

Часовой пояс: UTC + 3


Вы можете начинать темы
Вы можете отвечать на сообщения
Вы не можете редактировать свои сообщения
Вы не можете удалять свои сообщения
Вы не можете голосовать в опросах
Вы не можете прикреплять файлы к сообщениям
Вы можете скачивать файлы