(Chamber) А.К. Глазунов - Струнный квартет № 2, Струнный квартет № 4 / A.K. Glazunov - String Quartets Nos. 2 & 4 (Квартет им. Шостаковича / The Shostakovich Quartet) - 1992, FLAC (image+.cue) lossless


 

[Цитировать]

A.K. Glazunov - String Quartets Nos. 2 & 4 - The Shostakovich Quartet
Жанр: Chamber
Страна-производитель диска: England
Год издания диска: 1992
Издатель (лейбл): Мелодия/Olympia
Номер по каталогу: MCD173
Дата записи: 1974
Аудиокодек: FLAC
Тип рипа: image+.cue
Битрейт аудио: lossless
Продолжительность: 62:09
Источник: скачано с
Наличие сканов в содержимом раздачи: да
Треклист:
А.К. Глазунов (1865-1936)
Струнный квартет № 2 фа мажор, оп.10 (1884) 29'33
I. Allegro non troppu (6:27)
II. Scherzo-allegro (5:23)
III. Adagio molto (9:26)
IV. Allegro moderato (8:24)
Струнный квартет № 4 ля минор, оп.64 (1894) 32'23
I. Andante - Allegro (8:37)
II. Andante (8:09)
III. Scherzo - Vivace (5:48)
IV. Finale - Allegro (9:51)
Исполнители:
КВАРТЕТ им. ШОСТАКОВИЧА:
Андрей Шишлов, скрипка
Александр Балашов, скрипка
Александр Галковский, альт
Александр Корчагин, виолончель
Запись 1974г.

Лог создания рипа

Exact Audio Copy V1.0 beta 3 from 29. August 2011
EAC extraction logfile from 23. September 2012, 18:09
Shostakovich Quartet / Glazunov - String Quartets
Used drive : HP DVD Writer 1260t Adapter: 0 ID: 1
Read mode : Secure
Utilize accurate stream : Yes
Defeat audio cache : Yes
Make use of C2 pointers : No
Read offset correction : 6
Overread into Lead-In and Lead-Out : No
Fill up missing offset samples with silence : Yes
Delete leading and trailing silent blocks : No
Null samples used in CRC calculations : Yes
Used interface : Native Win32 interface for Win NT & 2000
Used output format : User Defined Encoder
Selected bitrate : 1024 kBit/s
Quality : High
Add ID3 tag : No
Command line compressor : C:\Program Files\Exact Audio Copy\FLAC\FLAC.EXE
Additional command line options : -8 -V -T "ARTIST=%artist%" -T "TITLE=%title%" -T "ALBUM=%albumtitle%" -T "DATE=%year%" -T "TRACKNUMBER=%tracknr%" -T "GENRE=%genre%" -T "PERFORMER=%albuminterpret%" -T "COMPOSER=%composer%" %haslyrics%--tag-from-file=LYRICS="%lyricsfile%"%haslyrics% -T "ALBUMARTIST=%albumartist%" -T "DISCNUMBER=%cdnumber%" -T "TOTALDISCS=%totalcds%" -T "TOTALTRACKS=%numtracks%" -T "COMMENT=%comment%" %source% -o %dest%
TOC of the extracted CD
Track | Start | Length | Start sector | End sector
---------------------------------------------------------
1 | 0:00.32 | 6:27.58 | 32 | 29114
2 | 6:28.15 | 5:23.00 | 29115 | 53339
3 | 11:51.15 | 9:26.40 | 53340 | 95829
4 | 21:17.55 | 8:24.05 | 95830 | 133634
5 | 29:41.60 | 8:37.60 | 133635 | 172469
6 | 38:19.45 | 8:09.67 | 172470 | 209211
7 | 46:29.37 | 5:48.13 | 209212 | 235324
8 | 52:17.50 | 9:51.72 | 235325 | 279721
Range status and errors
Selected range
Filename H:\torrent music\Glazunov - String Quartets Nos. 2 and 4 (The Shostakovich String Quartet)(MELODIYA)\Disc\Shostakovich Quartet - Glazunov - String Quartets.wav
Peak level 88.7 %
Extraction speed 6.4 X
Range quality 100.0 %
Test CRC AA27FA8C
Copy CRC AA27FA8C
Copy OK
No errors occurred
AccurateRip summary
Track 1 accurately ripped (confidence 1) [9259E4A1] (AR v1)
Track 2 accurately ripped (confidence 1) [EC697F3C] (AR v1)
Track 3 accurately ripped (confidence 1) [836B0D6F] (AR v1)
Track 4 accurately ripped (confidence 1) [8A453405] (AR v1)
Track 5 accurately ripped (confidence 1) [E39ACFCD] (AR v1)
Track 6 accurately ripped (confidence 1) [A501607F] (AR v1)
Track 7 accurately ripped (confidence 1) [3884FBBF] (AR v1)
Track 8 accurately ripped (confidence 1) [084D1FCC] (AR v1)
All tracks accurately ripped
End of status report
==== Log checksum 5D890F1BDD728BC8645A81826D1FF9359882D959F138B50816C26ED8A72ACCC3 ====
------------------------------------------------------------
Exact Audio Copy V1.0 beta 3 from 29. August 2011
EAC extraction logfile from 23. September 2012, 18:09
Shostakovich Quartet / Glazunov - String Quartets
Used drive : HP DVD Writer 1260t Adapter: 0 ID: 1
Read mode : Secure
Utilize accurate stream : Yes
Defeat audio cache : Yes
Make use of C2 pointers : No
Read offset correction : 6
Overread into Lead-In and Lead-Out : No
Fill up missing offset samples with silence : Yes
Delete leading and trailing silent blocks : No
Null samples used in CRC calculations : Yes
Used interface : Native Win32 interface for Win NT & 2000
Used output format : User Defined Encoder
Selected bitrate : 1024 kBit/s
Quality : High
Add ID3 tag : No
Command line compressor : C:\Program Files\Exact Audio Copy\FLAC\FLAC.EXE
Additional command line options : -8 -V -T "ARTIST=%artist%" -T "TITLE=%title%" -T "ALBUM=%albumtitle%" -T "DATE=%year%" -T "TRACKNUMBER=%tracknr%" -T "GENRE=%genre%" -T "PERFORMER=%albuminterpret%" -T "COMPOSER=%composer%" %haslyrics%--tag-from-file=LYRICS="%lyricsfile%"%haslyrics% -T "ALBUMARTIST=%albumartist%" -T "DISCNUMBER=%cdnumber%" -T "TOTALDISCS=%totalcds%" -T "TOTALTRACKS=%numtracks%" -T "COMMENT=%comment%" %source% -o %dest%
TOC of the extracted CD
Track | Start | Length | Start sector | End sector
---------------------------------------------------------
1 | 0:00.32 | 6:27.58 | 32 | 29114
2 | 6:28.15 | 5:23.00 | 29115 | 53339
3 | 11:51.15 | 9:26.40 | 53340 | 95829
4 | 21:17.55 | 8:24.05 | 95830 | 133634
5 | 29:41.60 | 8:37.60 | 133635 | 172469
6 | 38:19.45 | 8:09.67 | 172470 | 209211
7 | 46:29.37 | 5:48.13 | 209212 | 235324
8 | 52:17.50 | 9:51.72 | 235325 | 279721
Range status and errors
Selected range
Filename H:\torrent music\Glazunov - String Quartets Nos. 2 and 4 (The Shostakovich String Quartet)(MELODIYA)\Disc\Shostakovich Quartet - Glazunov - String Quartets.wav
Peak level 88.7 %
Extraction speed 6.4 X
Range quality 100.0 %
Test CRC AA27FA8C
Copy CRC AA27FA8C
Copy OK
No errors occurred
AccurateRip summary
Track 1 accurately ripped (confidence 1) [9259E4A1] (AR v1)
Track 2 accurately ripped (confidence 1) [EC697F3C] (AR v1)
Track 3 accurately ripped (confidence 1) [836B0D6F] (AR v1)
Track 4 accurately ripped (confidence 1) [8A453405] (AR v1)
Track 5 accurately ripped (confidence 1) [E39ACFCD] (AR v1)
Track 6 accurately ripped (confidence 1) [A501607F] (AR v1)
Track 7 accurately ripped (confidence 1) [3884FBBF] (AR v1)
Track 8 accurately ripped (confidence 1) [084D1FCC] (AR v1)
All tracks accurately ripped
End of status report
==== Log checksum 5D890F1BDD728BC8645A81826D1FF9359882D959F138B50816C26ED8A72ACCC3 ====
Доп. информация: Семь струнных квартетов, которые создавались Глазуновым на протяжении почти пяти десятилетий (1882—1930) творческой жизни, в значительной мере отразили основные черты его стиля. Им присуще, с одной стороны, объективное художественное миросозерцание, тяготение к сдержанной лирике, жанровость, опора на песенно-танцевальные интонации славянского фольклора и восточные музыкальные элементы, широта мелодического дыхания, колористические находки в инструментовке. Другими особенностями квартетного стиля Глазунова должны быть названы два основных вида трактовки квартета с точки зрения ансамблевого звучания: как жанра, приближающегося к камерной симфонии (1, 2, 3, 7 квартеты), и как традиционно камерного жанра (4, 5, 6 квартеты).
Квартет имени Шостаковича, чей артистический облик характеризуют классическая просветленность и преданность идеалам русской камерной музыки, был образован в 1966 году в Московской консерватории. Победы на международных конкурсах открыли музыкантам путь на большую сцену. С 1970х - это один из ведущих квартетов мира.

О диске

Второй квартет (1884), написанный 19-летним Глазуновым, удивил слушателей зрелостью, оригинальностью тематической изобретательности, мастерством и благородством стиля, тесно связнного с традициями петербургской школы (Римский-Корсаков, Бородин). Квартет открывает Аллегро, наполненное широкими яркими темами в грациозно-русском стиле и приветливой лирической напевностью побочных партий. За ним следует воздушно-лёгкое скерцо в характере игривого танца с лирической побочной темой. Третья часть - спокойное, чуть торжественное Адажио. Его песенная первая тема со свободным полифоническим ведением отдельных голосов могла быть подсказана «Хором поселян» из «Князя Игоря» Бородина. Завершает цикл размашистый финал на тему русской народной песни.
В музыке Четвертого квартета (1894) проявились черты сосредоточенного скорбного лиризма и душевной взволнованности. Стасову слышались там отзвуки глубокой душевной драмы, "вскрики наболевшей, измученной души, истерзанной и израненной какими-то бедами великими". Не без оснований некоторые исследователи усматривали в этом влияние Чайковского. Объединяющим моментом, устанавливающим связь между отдельными частями, служит имитационная последовательность терций во вступительном Andante, образующая ряд напряженных диссонирующих созвучий. Приведенное построение становится источником темы главной партии, но острые столкновения голосов превращаются в свободно развивающуюся мелодию, выражение мучительной скорби сменяется меланхолической задумчивостью. Эту тему дополняет более светлая спокойная тема побочной партии. Вторая часть квартета — просветленное Andante с мелодизированной звуковой тканью, основанной на свободном сплетении поющих голосов, — один из прекрасных образцов углубленной созерцательной лирики Глазунова. Только в конце оживленного среднего раздела, незадолго до репризы трехчастной формы, возникает реминисценция из главной партии предшествующего Allegro. Отдаленное сходство с ней можно уловить и в отдельных оборотах легкого стремительного Скерцо. В последний раз имитационно сопряженные пары голосов возникают в начале финала с хроматическим заострением мелодических интонаций, но это лишь короткий эпизод и напряжение быстро спадает, сменяясь энергичным движением главной партии. Более выразительна ритмически гибкая с оттенком танцевальности тема побочной партии, родственная заключительной партии первого Allegro.
А.К. Глазунов - Струнный квартет № 1, П. И. Чайковский, Струнный квартет № 5, Пятницы (Квартет им. Шостаковича)
А.Глазунов - Струнный квартет № 6, Струнный квартет № 7 "Дань прошлому"(Квартет им. Шостаковича)



Показать сообщения:    

Текущее время: 08-Дек 10:53

Часовой пояс: UTC + 3


Вы не можете начинать темы
Вы не можете отвечать на сообщения
Вы не можете редактировать свои сообщения
Вы не можете удалять свои сообщения
Вы не можете голосовать в опросах
Вы не можете прикреплять файлы к сообщениям
Вы не можете скачивать файлы