[TR24][OF] Dmitri Shostakovich/Шостакович: Sonata for Cello and Piano (Daniil Shafran/Даниил Шафран, Lydia Pecherskaya/Лидия Печерская); Johannes Brahms: Piano Trio No. 2 (Gary Graffman, Berl Senofsky, Shirley Trepel) - 1964-68/2009 (Classical)


Статистика раздачи [Обновить пиров]
Размер:  1.96 GB   |    Зарегистрирован:  8 месяцев 17 дней   |    Скачан:  1 раз

Полного источника не было: 23 дня

 
   
 
 
 

[Цитировать]

Dmitri Shostakovich: Sonata for Cello and Piano
Daniil Shafran, Lydia Pecherskaya
Johannes Brahms: Trio for Piano and Strings No. 2
Gary Graffman, Berl Senofsky, Shirley Trepel
- Год издания/переиздания диска:
Sonata for Cello and Piano - 1968/2009 (Rec. 1961)
Trio for Piano and Strings No 2 - 1964/2009 (Rec. 1964)

Жанр: Classical
Издатель (лейбл): High Definition Tape Transfers
Продолжительность: 00:51:16
Наличие сканов: Sleeve, Digital Booklet- -
Dmitri Shostakovich (1906-1975)
Sonata for Cello and Piano in D minor, Op. 40 (1934)
01. I. Allegro non troppo (8:35)
02. II. Allegro (3:07)
03. III. Largo (7:57)
04. IV. Allegro (4:04)
Daniil Shafran - cello, Lydia Pecherskaya - piano
Johannes Brahms (1833-1897)
Trio for Piano and Strings No 2 in C major, Op. 87 (1882)
05. I. Allegro moderato (9:07)
06. II. Andante con moto (8:46)
07. III. Scherzo: Presto (3:46)
08. IV. Finale: Allegro giocoso (5:55)
Berl Senofsky - violin, Shirley Trepel - cello, Gary Graffman - piano-Контейнер: FLAC (*.flac)
Тип рипа: tracks
Разрядность: 24bit / 192kHz
Количество каналов: 2.0

-

ОтчётыДинамический диапазон

foobar2000 1.2.2 / Dynamic Range Meter 1.1.1
log date: 2015-06-18 13:26:11
--------------------------------------------------------------------------------
Analyzed: Daniil Shafran, Lydia Pecherskaya / Shostakovich: Cello Sonata, Brahms: Piano Trio No. 2 (1-4)
Gary Graffman, Berl Senofsky, Shirley Trepel / Shostakovich: Cello Sonata, Brahms: Piano Trio No. 2 (5-8)
--------------------------------------------------------------------------------
DR Peak RMS Duration Track
--------------------------------------------------------------------------------
DR12 -1.22 dB -19.35 dB 8:35 ?-Sonata for Cello and Piano in D minor, Op. 40: I. Allegro non troppo
DR12 0.00 dB -16.31 dB 3:07 ?-Sonata for Cello and Piano in D minor, Op. 40: II. Allegro
DR12 -2.48 dB -21.23 dB 7:57 ?-Sonata for Cello and Piano in D minor, Op. 40: III. Largo
DR12 -0.29 dB -18.10 dB 4:04 ?-Sonata for Cello and Piano in D minor, Op. 40: IV. Allegro
DR11 -0.09 dB -16.23 dB 9:07 ?-Trio for Piano and Strings No 2 in C major, Op. 87: I. Allegro moderato
DR12 0.00 dB -17.75 dB 8:46 ?-Trio for Piano and Strings No 2 in C major, Op. 87: II. Andante con moto
DR10 -1.37 dB -16.74 dB 3:46 ?-Trio for Piano and Strings No 2 in C major, Op. 87: III. Scherzo: Presto
DR10 -0.31 dB -15.80 dB 5:55 ?-Trio for Piano and Strings No 2 in C major, Op. 87: IV. Finale: Allegro giocoso
--------------------------------------------------------------------------------
Number of tracks: 8
Official DR value: DR11
Samplerate: 192000 Hz
Channels: 2
Bits per sample: 24
Bitrate: 5472 kbps
Codec: FLAC
================================================================================

Скриншот спектра частот

Доп. информация

При скачивании, если необходимо, переименуйте папку, в которой будет находиться альбомБольшая просьба к скачавшим поддерживать раздачу! Помогайте другим, ведь вам тоже может понадобиться помощь!Не забываем говорить "Спасибо"!Комментарии приветствуются!
[teatrix.ru].t21492.torrent 
Торрент: Зарегистрирован [ 2016-03-20 12:24 ] · E505307DAA6FA6D4695F6B0B7A96DC427B267AE0

Скачать .torrent

Скачать

21 KB

Статус: проверено
Скачан: 1 раз
Размер: 1.96 GB
terms.php



Быстрый ответ

Имя:

      
Для отправки сообщений необходимо включить JavaScript
Показать сообщения:    

Текущее время: 06-Дек 13:08

Часовой пояс: UTC + 3


Вы можете начинать темы
Вы можете отвечать на сообщения
Вы не можете редактировать свои сообщения
Вы не можете удалять свои сообщения
Вы не можете голосовать в опросах
Вы не можете прикреплять файлы к сообщениям
Вы можете скачивать файлы