(Chamber) А.К. Глазунов - Струнный квартет № 6, Струнный квартет № 7 "Дань прошлому" / A.K. Glazunov - String Quartets Nos. 6 & 7 (Квартет им. Шостаковича / The Shostakovich Quartet) - 1992, FLAC (image+.cue) lossless


 

[Цитировать]

A.K. Glazunov - String Quartets Nos. 6 & 7 - The Shostakovich Quartet
Жанр: Chamber
Страна-производитель диска: England
Год издания диска: 1992
Издатель (лейбл): Мелодия/Olympia
Номер по каталогу: OCD526
Дата записи: 1975-76
Аудиокодек: FLAC
Тип рипа: image+.cue
Битрейт аудио: lossless
Продолжительность: 72:36
Источник: скачано с
Наличие сканов в содержимом раздачи: да
Треклист:
А.К. Глазунов (1865-1936)
Струнный квартет №6 B-dur, оп.106 (1920-21) 43'02
I Allegro (11:56)
II Сельское интермеццо (8:11)
III Andante piangevole (8:23)
IV Tema con variazioni (14:37
Струнный квартет №7 C-dur, "Дань прошлому", оп.107 (1930) 29'27
I Дань прошлому (8:49)
II Дыхание весны (6:57)
III В таинственном лесу (6:14)
IV Русский праздник (7:25)
Исполнители:
КВАРТЕТ им. ШОСТАКОВИЧА:
Андрей Шишлов, скрипка
Александр Семянников, скрипка
Александр Галковский, альт
Александр Корчагин, виолончель
Запись 1974г.

Лог создания рипа

Exact Audio Copy V1.0 beta 3 from 29. August 2011
EAC extraction logfile from 23. September 2012, 19:00
Glazunov / String Quartets Nos 6 and 7
Used drive : HP DVD Writer 1260t Adapter: 0 ID: 1
Read mode : Secure
Utilize accurate stream : Yes
Defeat audio cache : Yes
Make use of C2 pointers : No
Read offset correction : 6
Overread into Lead-In and Lead-Out : No
Fill up missing offset samples with silence : Yes
Delete leading and trailing silent blocks : No
Null samples used in CRC calculations : Yes
Used interface : Native Win32 interface for Win NT & 2000
Used output format : User Defined Encoder
Selected bitrate : 1024 kBit/s
Quality : High
Add ID3 tag : No
Command line compressor : C:\Program Files\Exact Audio Copy\FLAC\FLAC.EXE
Additional command line options : -8 -V -T "ARTIST=%artist%" -T "TITLE=%title%" -T "ALBUM=%albumtitle%" -T "DATE=%year%" -T "TRACKNUMBER=%tracknr%" -T "GENRE=%genre%" -T "PERFORMER=%albuminterpret%" -T "COMPOSER=%composer%" %haslyrics%--tag-from-file=LYRICS="%lyricsfile%"%haslyrics% -T "ALBUMARTIST=%albumartist%" -T "DISCNUMBER=%cdnumber%" -T "TOTALDISCS=%totalcds%" -T "TOTALTRACKS=%numtracks%" -T "COMMENT=%comment%" %source% -o %dest%
TOC of the extracted CD
Track | Start | Length | Start sector | End sector
---------------------------------------------------------
1 | 0:00.00 | 11:56.32 | 0 | 53731
2 | 11:56.32 | 8:11.35 | 53732 | 90591
3 | 20:07.67 | 8:23.43 | 90592 | 128359
4 | 28:31.35 | 14:37.15 | 128360 | 194149
5 | 43:08.50 | 8:49.35 | 194150 | 233859
6 | 51:58.10 | 6:57.70 | 233860 | 265204
7 | 58:56.05 | 6:14.12 | 265205 | 293266
8 | 65:10.17 | 7:25.58 | 293267 | 326699
Range status and errors
Selected range
Filename H:\torrent music\Glazunov - String Quartets Nos. 6 and 7 (The Shostakovich Quartet)(OLYMPIA)\Disc\Glazunov - String Quartets Nos 6 and 7.wav
Peak level 57.7 %
Extraction speed 6.8 X
Range quality 100.0 %
Test CRC 16F8685C
Copy CRC 16F8685C
Copy OK
No errors occurred
AccurateRip summary
Track 1 accurately ripped (confidence 1) [8E40E9D3] (AR v1)
Track 2 accurately ripped (confidence 1) [8BBB3DBA] (AR v1)
Track 3 accurately ripped (confidence 1) [227EC00C] (AR v1)
Track 4 accurately ripped (confidence 1) [266E5C88] (AR v1)
Track 5 not present in database
Track 6 not present in database
Track 7 not present in database
Track 8 not present in database
4 track(s) accurately ripped
4 track(s) not present in the AccurateRip database
Some tracks could not be verified as accurate
End of status report
==== Log checksum 9E115A47A301EE94370C062AA37CEEEF75C44E9F77945ED80BFE302BD7F706A7 ====
------------------------------------------------------------
Exact Audio Copy V1.0 beta 3 from 29. August 2011
EAC extraction logfile from 23. September 2012, 19:00
Glazunov / String Quartets Nos 6 and 7
Used drive : HP DVD Writer 1260t Adapter: 0 ID: 1
Read mode : Secure
Utilize accurate stream : Yes
Defeat audio cache : Yes
Make use of C2 pointers : No
Read offset correction : 6
Overread into Lead-In and Lead-Out : No
Fill up missing offset samples with silence : Yes
Delete leading and trailing silent blocks : No
Null samples used in CRC calculations : Yes
Used interface : Native Win32 interface for Win NT & 2000
Used output format : User Defined Encoder
Selected bitrate : 1024 kBit/s
Quality : High
Add ID3 tag : No
Command line compressor : C:\Program Files\Exact Audio Copy\FLAC\FLAC.EXE
Additional command line options : -8 -V -T "ARTIST=%artist%" -T "TITLE=%title%" -T "ALBUM=%albumtitle%" -T "DATE=%year%" -T "TRACKNUMBER=%tracknr%" -T "GENRE=%genre%" -T "PERFORMER=%albuminterpret%" -T "COMPOSER=%composer%" %haslyrics%--tag-from-file=LYRICS="%lyricsfile%"%haslyrics% -T "ALBUMARTIST=%albumartist%" -T "DISCNUMBER=%cdnumber%" -T "TOTALDISCS=%totalcds%" -T "TOTALTRACKS=%numtracks%" -T "COMMENT=%comment%" %source% -o %dest%
TOC of the extracted CD
Track | Start | Length | Start sector | End sector
---------------------------------------------------------
1 | 0:00.00 | 11:56.32 | 0 | 53731
2 | 11:56.32 | 8:11.35 | 53732 | 90591
3 | 20:07.67 | 8:23.43 | 90592 | 128359
4 | 28:31.35 | 14:37.15 | 128360 | 194149
5 | 43:08.50 | 8:49.35 | 194150 | 233859
6 | 51:58.10 | 6:57.70 | 233860 | 265204
7 | 58:56.05 | 6:14.12 | 265205 | 293266
8 | 65:10.17 | 7:25.58 | 293267 | 326699
Range status and errors
Selected range
Filename H:\torrent music\Glazunov - String Quartets Nos. 6 and 7 (The Shostakovich Quartet)(OLYMPIA)\Disc\Glazunov - String Quartets Nos 6 and 7.wav
Peak level 57.7 %
Extraction speed 6.8 X
Range quality 100.0 %
Test CRC 16F8685C
Copy CRC 16F8685C
Copy OK
No errors occurred
AccurateRip summary
Track 1 accurately ripped (confidence 1) [8E40E9D3] (AR v1)
Track 2 accurately ripped (confidence 1) [8BBB3DBA] (AR v1)
Track 3 accurately ripped (confidence 1) [227EC00C] (AR v1)
Track 4 accurately ripped (confidence 1) [266E5C88] (AR v1)
Track 5 not present in database
Track 6 not present in database
Track 7 not present in database
Track 8 not present in database
4 track(s) accurately ripped
4 track(s) not present in the AccurateRip database
Some tracks could not be verified as accurate
End of status report
==== Log checksum 9E115A47A301EE94370C062AA37CEEEF75C44E9F77945ED80BFE302BD7F706A7 ====
Доп. информация: Поздний квартетный стиль Глазунова отличает известная строгость и сухость, преобладание мастерства и технической выдумки над выразительностью музыкального материала (не зря Стравинский, разочаровавшись в Глазунове, за глаза звал его Карл Филипп Эммануил Римский-Корсаков). Назад к формальным истокам - это была позиция композитора старой русской школы перед лицом наступающего авангарда.

О диске

Шестой квартет Глазунова, написанный в 1921 году, по монументальности и высокому интеллектуализму приближается к поздним бетховенским. В основе главной партии первого allegro лежит краткая афористическая фраза, которая становится источником всевозможных вариантов и контрапунктических сплетений, создающих почти непрерывно развивающуюся музыкальную ткань. Из тех же элементов складывается и тема побочной партии. Освежающий жанровый контраст вносит вторая часть, «Сельское интермеццо», со сменой разных по длительности тактов (3/8, 2/8, 3/2) (В собрании квартетов Глазунова, изданном Музгизом в 1951 году, итальянское заглавие этой части «Intermezzo rusticano» ошибочно переведено как «Интермеццо в русском духе». По верному замечанию Шербюлье, ее метрическая неравномерность близка не столько русской народной песенности, сколько некоторым видам южнославянских (сербских, македонских, болгарских) танцевальных песен.), группирующихся в более крупные метрические периоды. Некоторой умозрительностью страдают две последние части квартета — Andante piangevole и Тема с вариациями. Вплетение мотивов первой части в заключительное построение вариаций придает форме целого замкнутый, закругленный характер.
В 1930 году Глазунов, находившийся в это время в Париже, написал свой последний, Седьмой квартет, проникнутый ностальгическими мотивами: образы утраченного прошлого встают в воображении стареющего композитора, чувствовавшего, что жизнь уходит все дальше от его творческих идеалов и привязанностей. Отдельные части квартета озаглавлены: «Дань прошлому», «Дыхание весны», «В таинственном лесу», «Русский праздник». Музыка квартета отличается простотой и ясностью изложения («Держусь классиков», — писал Глазунов М. О. Штейнбергу.). Только в последней его части, близкой по характеру глазуновским монументальным симфоническим финалам, композитор стремился приблизить звучание струнного квартета к оркестровому («В целом финал носит оркестровый характер, но полагаю, что будет хорошо звучать. Большинство двойных нот и аккордов проверено очень хорошим скрипачом», а в начале коды игра всех инструментов pizzicato имитирует народный оркестр.
А.К. Глазунов - Струнный квартет № 2, Струнный квартет № 4 - (Квартет им. Шостаковича)



Показать сообщения:    

Текущее время: 07-Дек 15:30

Часовой пояс: UTC + 3


Вы не можете начинать темы
Вы не можете отвечать на сообщения
Вы не можете редактировать свои сообщения
Вы не можете удалять свои сообщения
Вы не можете голосовать в опросах
Вы не можете прикреплять файлы к сообщениям
Вы не можете скачивать файлы