(Chamber) А.К. Глазунов - Струнный квартет № 1, П. И. Чайковский - Фортепианное трио / A.K. Glazunov - String Quartet № 1, P. Tchaikovsky - Piano Trio a-moll (Квартет им. Шостаковича / The Shostakovich Quartet) - 1988, FLAC (tracks+.cue) lossless


 

[Цитировать]

A.K. Glazunov - String Quartet № 1, Piano Trio a-moll - The Shostakovich Quartet, Leningrad Philharmonic Trio
Жанр: Chamber
Страна-производитель диска: England
Год издания диска: 1988
Издатель (лейбл): Мелодия/Olympia
Номер по каталогу: OCD157
Дата записи: 1974, 1986
Аудиокодек: FLAC
Тип рипа: tracks+.cue
Битрейт аудио: lossless
Продолжительность: 69:01
Источник: скачано с
Наличие сканов в содержимом раздачи: да
Треклист:
П.И. Чайковский (1840-1893)
Фортепианное трио ля минор "Памяти великого художника", оп.50 (1882) 47'25
1. Pezzo Elegiaco: Moderato Assai - 20:02
2. Thema Con Variazioni: Allegro Risoluto Con Fuoco. Variazione finale e coda - 27:20

А.К. Глазунов (1865-1936)

Струнный квартет № 1 D-dur, оп.1 (1881-82) 21'23
3. I. Andantino Moderato - 7:59
4. II. Scherzo-Vivace - 3:03
5. III. Andante - 3:59
6. IV. Finale - Moderato - 6:17
Исполнители:
Трио Ленинградской Филармонии:
Тамара Фидлер, фортепиано
Владимир Овчарек, скрипка
Бенджамин Морозов, виолончель
Запись 1986г

КВАРТЕТ им. ШОСТАКОВИЧА:
Андрей Шишлов, скрипка
Александр Балашов, скрипка
Александр Галковский, альт
Александр Корчагин, виолончель
Запись 1974г.

Лог создания рипа

X Lossless Decoder version 20140504 (147.0)
XLD extraction logfile from 2014-10-27 23:18:58 +0000
Leningrad Philharmonic Trio & Shostakovich Quartet / Tchaikovsky Piano Trio & Glazunov String Quartet No. 1
Used drive : TSSTcorp BDDVDW SE-506BB (revision TS00)
Media type : Pressed CD
Ripper mode : XLD Secure Ripper
Disable audio cache : OK for the drive with a cache less than 1375KiB
Make use of C2 pointers : NO
Read offset correction : 6
Max retry count : 100
Gap status : Analyzed, Appended (except HTOA)
TOC of the extracted CD
Track | Start | Length | Start sector | End sector
---------------------------------------------------------
1 | 00:00:33 | 20:06:25 | 33 | 90507
2 | 20:06:58 | 27:29:00 | 90508 | 214182
3 | 47:35:58 | 08:02:17 | 214183 | 250349
4 | 55:38:00 | 03:05:03 | 250350 | 264227
5 | 58:43:03 | 04:01:70 | 264228 | 282372
6 | 62:44:73 | 06:17:15 | 282373 | 310662
AccurateRip Summary
Disc not found in AccurateRip DB.
All Tracks
Album gain : -0.37 dB
Peak : 0.885437
Statistics
Read error : 0
Jitter error (maybe fixed) : 9
Retry sector count : 2338
Damaged sector count : 0
Track 01
Filename : /Users/Working Directory/Leningrad Philharmonic Trio & Shostakovich Quartet - Tchaikovsky Piano Trio & Glazunov String Quartet No. 1 (1986) [FLAC]/01 - Trio In A minor for piano, violin and cello, Op. 50 - Pezzo Elegiaco: Moderato Assai.flac
Pre-gap length : 00:02:33
Track gain : 0.03 dB
Peak : 0.806458
CRC32 hash (test run) : 777E0890
CRC32 hash : 777E0890
CRC32 hash (skip zero) : 03E26703
AccurateRip v1 signature : 78B6A846
AccurateRip v2 signature : A594FE3A
->Track not present in AccurateRip database.
Statistics
Read error : 0
Jitter error (maybe fixed) : 3
Retry sector count : 393
Damaged sector count : 0
Track 02
Filename : /Users/Working Directory/Leningrad Philharmonic Trio & Shostakovich Quartet - Tchaikovsky Piano Trio & Glazunov String Quartet No. 1 (1986) [FLAC]/02 - Trio In A minor for piano, violin and cello, Op. 50 - Thema Con Variazioni: Allegro Risoluto Con Fuoco.flac
Pre-gap length : 00:03:65
Track gain : -0.67 dB
Peak : 0.878906
CRC32 hash (test run) : 08028E41
CRC32 hash : 08028E41
CRC32 hash (skip zero) : E089282B
AccurateRip v1 signature : 6B7144AC
AccurateRip v2 signature : F31015F9
->Track not present in AccurateRip database.
Statistics
Read error : 0
Jitter error (maybe fixed) : 4
Retry sector count : 1549
Damaged sector count : 0
Track 03
Filename : /Users/Working Directory/Leningrad Philharmonic Trio & Shostakovich Quartet - Tchaikovsky Piano Trio & Glazunov String Quartet No. 1 (1986) [FLAC]/03 - String Quartet No. 1 in D major Op. 1 - Andantino Moderato.flac
Pre-gap length : 00:08:43
Track gain : -1.69 dB
Peak : 0.885437
CRC32 hash (test run) : 94DB9D7D
CRC32 hash : 94DB9D7D
CRC32 hash (skip zero) : 5DAA8C95
AccurateRip v1 signature : 52C048EC
AccurateRip v2 signature : 2B6617C4
->Track not present in AccurateRip database.
Statistics
Read error : 0
Jitter error (maybe fixed) : 0
Retry sector count : 0
Damaged sector count : 0
Track 04
Filename : /Users/Working Directory/Leningrad Philharmonic Trio & Shostakovich Quartet - Tchaikovsky Piano Trio & Glazunov String Quartet No. 1 (1986) [FLAC]/04 - String Quartet No. 1 in D major Op. 1 - Scherzo-Vivace.flac
Pre-gap length : 00:02:50
Track gain : 0.38 dB
Peak : 0.741547
CRC32 hash (test run) : AE093252
CRC32 hash : AE093252
CRC32 hash (skip zero) : A52F889D
AccurateRip v1 signature : 0A841B92
AccurateRip v2 signature : 4A345AA1
->Track not present in AccurateRip database.
Statistics
Read error : 0
Jitter error (maybe fixed) : 0
Retry sector count : 184
Damaged sector count : 0
Track 05
Filename : /Users/Working Directory/Leningrad Philharmonic Trio & Shostakovich Quartet - Tchaikovsky Piano Trio & Glazunov String Quartet No. 1 (1986) [FLAC]/05 - String Quartet No. 1 in D major Op. 1 - Andante.flac
Pre-gap length : 00:01:20
Track gain : 1.22 dB
Peak : 0.530426
CRC32 hash (test run) : 97F5FC78
CRC32 hash : 97F5FC78
CRC32 hash (skip zero) : 87D5DDE7
AccurateRip v1 signature : A5B3DA9A
AccurateRip v2 signature : 015073B8
->Track not present in AccurateRip database.
Statistics
Read error : 0
Jitter error (maybe fixed) : 1
Retry sector count : 0
Damaged sector count : 0
Track 06
Filename : /Users/Working Directory/Leningrad Philharmonic Trio & Shostakovich Quartet - Tchaikovsky Piano Trio & Glazunov String Quartet No. 1 (1986) [FLAC]/06 - String Quartet No. 1 in D major Op. 1 - Finale - Moderato.flac
Pre-gap length : 00:02:20
Track gain : 0.48 dB
Peak : 0.636108
CRC32 hash (test run) : E2F8B920
CRC32 hash : E2F8B920
CRC32 hash (skip zero) : 7A862D3B
AccurateRip v1 signature : 997F7381
AccurateRip v2 signature : 8AA4EC06
->Track not present in AccurateRip database.
Statistics
Read error : 0
Jitter error (maybe fixed) : 1
Retry sector count : 212
Damaged sector count : 0
No errors occurred
End of status report
-----BEGIN XLD SIGNATURE-----
8URCPZ5N9zTAHSyFEXTbH2qvvMA5WzWFxxPe0yCL6PEvzXCxC2lrpB.v5Tz6egDeP6LDkuAXr6nFzRPYTvi9J4.S4bkacm1Qi_TX11a
-----END XLD SIGNATURE-----
Диск довольно запиленный, есть пара щелчков

Содержание индексной карты (.CUE)

TITLE "Tchaikovsky Piano Trio & Glazunov String Quartet No. 1"
PERFORMER "Leningrad Philharmonic Trio & Shostakovich Quartet"
REM GENRE "Classical"
REM DATE "1988"
REM DISCID 52102E06
REM REPLAYGAIN_ALBUM_GAIN -0.37 dB
REM REPLAYGAIN_ALBUM_PEAK 0.885437
FILE "01 - Trio In A minor for piano, violin and cello, Op. 50 - Pezzo Elegiaco: Moderato Assai.flac" WAVE
TRACK 01 AUDIO
TITLE "Trio In A minor for piano, violin and cello, Op. 50 - Pezzo Elegiaco: Moderato Assai"
PERFORMER "Leningrad Philharmonic Trio"
SONGWRITER "Pyotr Ilyich Tchaikovsky"
REM COMMENT "Recorded in 1986, Sound Engineer G. Tses"
REM REPLAYGAIN_TRACK_GAIN 0.03 dB
REM REPLAYGAIN_TRACK_PEAK 0.806458
PREGAP 00:00:33
INDEX 01 00:00:00
TRACK 02 AUDIO
TITLE "Trio In A minor for piano, violin and cello, Op. 50 - Thema Con Variazioni: Allegro Risoluto Con Fuoco"
PERFORMER "Leningrad Philharmonic Trio"
SONGWRITER "Pyotr Ilyich Tchaikovsky"
REM COMMENT "Recorded in 1986, Sound Engineer G. Tses"
REM REPLAYGAIN_TRACK_GAIN -0.67 dB
REM REPLAYGAIN_TRACK_PEAK 0.878906
INDEX 00 20:02:35
FILE "02 - Trio In A minor for piano, violin and cello, Op. 50 - Thema Con Variazioni: Allegro Risoluto Con Fuoco.flac" WAVE
INDEX 01 00:00:00
TRACK 03 AUDIO
TITLE "String Quartet No. 1 in D major Op. 1 - Andantino Moderato"
PERFORMER "Shostakovich Quartet"
SONGWRITER "Alexander Glazunov"
REM COMMENT "Recorded in 1974, Sound Engineer Alexander Yunk"
REM REPLAYGAIN_TRACK_GAIN -1.69 dB
REM REPLAYGAIN_TRACK_PEAK 0.885437
INDEX 00 27:20:32
FILE "03 - String Quartet No. 1 in D major Op. 1 - Andantino Moderato.flac" WAVE
INDEX 01 00:00:00
TRACK 04 AUDIO
TITLE "String Quartet No. 1 in D major Op. 1 - Scherzo-Vivace"
PERFORMER "Shostakovich Quartet"
SONGWRITER "Alexander Glazunov"
REM COMMENT "Recorded in 1974, Sound Engineer Alexander Yunk"
REM REPLAYGAIN_TRACK_GAIN 0.38 dB
REM REPLAYGAIN_TRACK_PEAK 0.741547
INDEX 00 07:59:42
FILE "04 - String Quartet No. 1 in D major Op. 1 - Scherzo-Vivace.flac" WAVE
INDEX 01 00:00:00
TRACK 05 AUDIO
TITLE "String Quartet No. 1 in D major Op. 1 - Andante"
PERFORMER "Shostakovich Quartet"
SONGWRITER "Alexander Glazunov"
REM COMMENT "Recorded in 1974, Sound Engineer Alexander Yunk"
REM REPLAYGAIN_TRACK_GAIN 1.22 dB
REM REPLAYGAIN_TRACK_PEAK 0.530426
INDEX 00 03:03:58
FILE "05 - String Quartet No. 1 in D major Op. 1 - Andante.flac" WAVE
INDEX 01 00:00:00
TRACK 06 AUDIO
TITLE "String Quartet No. 1 in D major Op. 1 - Finale - Moderato"
PERFORMER "Shostakovich Quartet"
SONGWRITER "Alexander Glazunov"
REM COMMENT "Recorded in 1974, Sound Engineer Alexander Yunk"
REM REPLAYGAIN_TRACK_GAIN 0.48 dB
REM REPLAYGAIN_TRACK_PEAK 0.636108
INDEX 00 03:59:50
FILE "06 - String Quartet No. 1 in D major Op. 1 - Finale - Moderato.flac" WAVE
INDEX 01 00:00:00
Доп. информация:

О диске

Первый квартет Глазунова, написанный в 1881–82 годах и обозначенный опусом 1, можно считать самым ранним из его законченных произведений. Как и в появившемся двумя годами позже Втором квартете, юный композитор находится здесь всецело под обаянием творчества старших мастеров «новой русской школы». Чайковский, познакомившись с вышедшим в свет изданием Первого квартета, был «приятно удивлен» произведением юного, еще несовершеннолетнего композитора. «Несмотря на подражание Корсакову, — писал он своему брату Модесту Ильичу, — на несносную манеру вместо развития мысли ограничиваться бесчисленным повторением ее на тысячу ладов, несмотря на пренебрежение к мелодии и исключительную погоню за гармоническими курьезами, виден замечательный талант. Форма до того гладкая, что я изумлен...».
Подлинной симфоничностью масштабов обладает фортепианное трио П. И. Чайковского «Памяти великого художника», созданное на смерть безвременно скончавшегося в 1881 году Н. Г. Рубинштейна. По широте замысла, образному богатству и драматической напряженности музыки оно принадлежит к высшим достижениям композитора в области камерной инструментальной музыки. По содержанию трио - это не просто траурная элегия: в нем представлена жизнь в различных ее гранях, в смене горя и радости, печали и торжества. Оригинальна структура произведения в целом: оно состоит из первой части в сонатной форме, которую композитор озаглавил «Pezzo elegiaco» («Элегическая пьеса»), и темы с двенадцатью вариациями, причем последняя вариация развита до размеров самостоятельной части, образующей финал цикла.
А.Глазунов - Струнный квартет № 2, Струнный квартет № 4 - (Квартет им. Шостаковича)
А.Глазунов - Струнный квартет № 6, Струнный квартет № 7 "Дань прошлому"(Квартет им. Шостаковича)



Показать сообщения:    

Текущее время: 05-Дек 07:26

Часовой пояс: UTC + 3


Вы не можете начинать темы
Вы не можете отвечать на сообщения
Вы не можете редактировать свои сообщения
Вы не можете удалять свои сообщения
Вы не можете голосовать в опросах
Вы не можете прикреплять файлы к сообщениям
Вы не можете скачивать файлы