(Classical) Jean Sibelius - Lemminkainen Legends; Pohjola's Daughter - Finnish Radio Symphony Orchestra, Hannu Lintu - 2015, FLAC (image+.cue) lossless


 

[Цитировать]

Jean Sibelius - Lemminkäinen Legends; Pohjola's Daughter - Finnish Radio Symphony Orchestra, Hannu Lintu
Жанр: Classical
Страна-производитель диска: Finland
Год издания диска: 2015
Издатель (лейбл): Ondine
Номер по каталогу: ODE 1262-5
Дата записи: 2014
Аудиокодек: FLAC
Тип рипа: image+.cue
Битрейт аудио: lossless
Продолжительность: 61:40
Источник: собственный рип
Наличие сканов в содержимом раздачи: да
Треклист:
Jean Sibelius (1865-1957)
[1]-[4] Lemminkäinen Legends, Op. 22
[5] Pohjola’s Daughter (Pohjolan tytär), Op. 49
Исполнители:
Finnish Radio Symphony Orchestra
Hannu Lintu

Лог создания рипа

Exact Audio Copy V1.0 beta 3 from 29. August 2011
EAC extraction logfile from 14. June 2015, 1:04
Finnish RSO, Hannu Lintu / Sibelius - Lemminkainen Legends; Pohjola's Daughter
Used drive : HL-DT-STDVDRAM GU70N Adapter: 0 ID: 0
Read mode : Secure
Utilize accurate stream : Yes
Defeat audio cache : Yes
Make use of C2 pointers : No
Read offset correction : 48
Overread into Lead-In and Lead-Out : No
Fill up missing offset samples with silence : Yes
Delete leading and trailing silent blocks : No
Null samples used in CRC calculations : Yes
Used interface : Native Win32 interface for Win NT & 2000
Used output format : User Defined Encoder
Selected bitrate : 128 kBit/s
Quality : High
Add ID3 tag : No
Command line compressor : C:\Program Files (x86)\Exact Audio Copy\Flac\flac.exe
Additional command line options : -V -8 -T "Date=%year%" -T "Genre=%genre%" %source%
TOC of the extracted CD
Track | Start | Length | Start sector | End sector
---------------------------------------------------------
1 | 0:00.00 | 15:56.33 | 0 | 71732
2 | 15:56.33 | 9:07.20 | 71733 | 112777
3 | 25:03.53 | 16:19.50 | 112778 | 186252
4 | 41:23.28 | 6:31.57 | 186253 | 215634
5 | 47:55.10 | 13:43.08 | 215635 | 277367
Range status and errors
Selected range
Filename C:\temp\Sibelius - Lemminkainen Legends; Pohjola's Daughter\Sibelius - Lemminkainen Legends; Pohjola's Daughter.wav
Peak level 94.7 %
Extraction speed 2.2 X
Range quality 100.0 %
Test CRC 08D1090A
Copy CRC 08D1090A
Copy OK
No errors occurred
AccurateRip summary
Track 1 accurately ripped (confidence 1) [37103B2D] (AR v2)
Track 2 accurately ripped (confidence 1) [17790EAA] (AR v2)
Track 3 accurately ripped (confidence 1) [C8872B30] (AR v2)
Track 4 accurately ripped (confidence 1) [A74B754D] (AR v2)
Track 5 accurately ripped (confidence 1) [3A579C78] (AR v2)
All tracks accurately ripped
End of status report
==== Log checksum DE617ECBB4E9491E4F1C1DFA1DDAD47853AB2A6639A5A4A06CBED4AA032CBF05 ====



Показать сообщения:    

Текущее время: 04-Дек 11:14

Часовой пояс: UTC + 3


Вы не можете начинать темы
Вы не можете отвечать на сообщения
Вы не можете редактировать свои сообщения
Вы не можете удалять свои сообщения
Вы не можете голосовать в опросах
Вы не можете прикреплять файлы к сообщениям
Вы не можете скачивать файлы