(Opera) Monteverdi - L'íncoronazione di Poppea (Biccire, Ruggiero, Bucci, Matteuzzi, Martellacci - Vartolo) - 2004, APE (image+.cue) lossless


 

[Цитировать]

Claudio Monteverdi - L'íncoronazione di Poppea
Жанр: Opera
Страна-производитель диска: EU
Год издания диска: 2004
Издатель (лейбл): Brilliant Classics
Номер по каталогу: 92752
Дата записи: 2004
Аудиокодек: APE
Тип рипа: image+.cue
Битрейт аудио: lossless
Продолжительность: 57'91+53'25+66'11+73'48
Источник: собственный рип
Наличие сканов в содержимом раздачи: да
Треклист:
CD1
1. Prologo
2. - 6. Act 1: Scene I - V.2
CD2
1. - 8. Act 1: Scene VI - XIII
CD3
1. - 10. Act 2: Scene I - X
CD4
1. - 3. Act 2: Scene XI - XIII
4. - 11. Act 3: Scene I - VIII. 2
Исполнители:
Claudio Monteverdi - L'íncoronazione di Poppea
Opera in un prologo e tre atti
Poppea - Patrizia Bicciré
Nerone - Liliane Ruggiero
Fortuna - Angela Bucci
Ottone - Wiliam Matteuzzi
Seneca - Raffaele Costantini
Arnalta - Gabriella Martellacci
Sergio Vartolo, conductor from the cembalo

Лог создания рипа

CD1

Exact Audio Copy V1.0 beta 3 from 29. August 2011
EAC extraction logfile from 26. May 2015, 19:09
Monteverdi / L'incoronazione di Poppea, Vartolo CD1
Used drive : TS8XDVDSTRANSCEND Adapter: 1 ID: 1
Read mode : Secure
Utilize accurate stream : Yes
Defeat audio cache : Yes
Make use of C2 pointers : No
Read offset correction : 6
Overread into Lead-In and Lead-Out : No
Fill up missing offset samples with silence : Yes
Delete leading and trailing silent blocks : No
Null samples used in CRC calculations : Yes
Used interface : Native Win32 interface for Win NT & 2000
Used output format : Monkey's Audio Lossless Encoder
Selected bitrate : High Lossless Compression
Quality : High
Add ID3 tag : Yes
Command line compressor : C:\Program Files (x86)\Exact Audio Copy\MAC\MAC.exe
TOC of the extracted CD
Track | Start | Length | Start sector | End sector
---------------------------------------------------------
1 | 0:00.00 | 10:28.65 | 0 | 47164
2 | 10:28.65 | 9:57.56 | 47165 | 91995
3 | 20:26.46 | 5:00.49 | 91996 | 114544
4 | 25:27.20 | 11:12.35 | 114545 | 164979
5 | 36:39.55 | 8:48.18 | 164980 | 204597
6 | 45:27.73 | 13:46.11 | 204598 | 266558
Range status and errors
Selected range
Filename D:\EAC\Monteverdi - L'incoronazione di Poppea, Vartolo CD1.wav
Peak level 100.0 %
Extraction speed 1.9 X
Range quality 100.0 %
Test CRC C047BA21
Copy CRC C047BA21
Copy OK
No errors occurred
AccurateRip summary
Track 1 accurately ripped (confidence 4) [7AB981CA] (AR v2)
Track 2 accurately ripped (confidence 4) [F615D303] (AR v2)
Track 3 accurately ripped (confidence 4) [AC63069A] (AR v2)
Track 4 accurately ripped (confidence 4) [B64EE271] (AR v2)
Track 5 accurately ripped (confidence 4) [2073E0F4] (AR v2)
Track 6 accurately ripped (confidence 3) [981F365E] (AR v2)
All tracks accurately ripped
End of status report
---- CUETools DB Plugin V2.1.3
[CTDB TOCID: 6xXJ4x6STOR5f7rkUD3h9kF6WPQ-] found, Submit result: unrecognized or virtual drive
[ec7c9dd7] (1/1) No match
==== Log checksum A38F228EEE4EE957ACE807A8B3F76DDAB4D308BA5B4E49FAAEF63DD8486B2B71 ====

CD2

Exact Audio Copy V1.0 beta 3 from 29. August 2011
EAC extraction logfile from 26. May 2015, 19:01
Monteverdi / L'incoronazione di Poppea, Vartolo CD2
Used drive : TSSTcorpCDDVDW SE-208AB Adapter: 1 ID: 0
Read mode : Secure
Utilize accurate stream : Yes
Defeat audio cache : Yes
Make use of C2 pointers : No
Read offset correction : 6
Overread into Lead-In and Lead-Out : No
Fill up missing offset samples with silence : Yes
Delete leading and trailing silent blocks : No
Null samples used in CRC calculations : Yes
Used interface : Native Win32 interface for Win NT & 2000
Used output format : Monkey's Audio Lossless Encoder
Selected bitrate : High Lossless Compression
Quality : High
Add ID3 tag : Yes
Command line compressor : C:\Program Files (x86)\Exact Audio Copy\MAC\MAC.exe
TOC of the extracted CD
Track | Start | Length | Start sector | End sector
---------------------------------------------------------
1 | 0:00.00 | 11:58.30 | 0 | 53879
2 | 11:58.30 | 1:51.58 | 53880 | 62262
3 | 13:50.13 | 2:46.01 | 62263 | 74713
4 | 16:36.14 | 7:38.45 | 74714 | 109108
5 | 24:14.59 | 12:26.17 | 109109 | 165075
6 | 36:41.01 | 8:44.55 | 165076 | 204430
7 | 45:25.56 | 2:28.65 | 204431 | 215595
8 | 47:54.46 | 7:34.10 | 215596 | 249655
Range status and errors
Selected range
Filename D:\EAC\Monteverdi - L'incoronazione di Poppea, Vartolo CD2.wav
Peak level 100.0 %
Extraction speed 1.8 X
Range quality 100.0 %
Test CRC DF917374
Copy CRC DF917374
Copy OK
No errors occurred
AccurateRip summary
Track 1 accurately ripped (confidence 4) [511BE6A2] (AR v2)
Track 2 accurately ripped (confidence 4) [4A55E37E] (AR v2)
Track 3 accurately ripped (confidence 4) [5ADFE658] (AR v2)
Track 4 accurately ripped (confidence 4) [BDC8D092] (AR v2)
Track 5 accurately ripped (confidence 4) [2F0908BB] (AR v2)
Track 6 accurately ripped (confidence 4) [ED8E8631] (AR v2)
Track 7 accurately ripped (confidence 4) [20F9DD11] (AR v2)
Track 8 accurately ripped (confidence 4) [86DD1F7B] (AR v2)
All tracks accurately ripped
End of status report
---- CUETools DB Plugin V2.1.3
[CTDB TOCID: aTyUYNCznlJInR3jD9pAy2Q8KoU-] found, Submit result: aTyUYNCznlJInR3jD9pAy2Q8KoU- has been uploaded
[3a388e87] (1/1) No match
==== Log checksum 9E8D2E32115626EA58D52FA8BD6029E9E69F64C5D2F7CD429B7486B3A10A64CE ====

CD3

Exact Audio Copy V1.0 beta 6 from 9. April 2015
EAC extraction logfile from 10. June 2015, 15:54
Monteverdi / L'incoronazione di Poppea, Vartolo CD3
Used drive : TSSTcorpCDDVDW SE-208AB Adapter: 1 ID: 1
Read mode : Secure
Utilize accurate stream : Yes
Defeat audio cache : Yes
Make use of C2 pointers : No
Read offset correction : 6
Overread into Lead-In and Lead-Out : No
Fill up missing offset samples with silence : Yes
Delete leading and trailing silent blocks : No
Null samples used in CRC calculations : Yes
Used interface : Native Win32 interface for Win NT & 2000
Used output format : Monkey's Audio Lossless Encoder
Selected bitrate : High Lossless Compression
Quality : High
Add ID3 tag : Yes
Command line compressor : C:\Program Files (x86)\Exact Audio Copy\MAC\MAC.exe
TOC of the extracted CD
Track | Start | Length | Start sector | End sector
---------------------------------------------------------
1 | 0:00.00 | 1:35.18 | 0 | 7142
2 | 1:35.18 | 6:43.00 | 7143 | 37367
3 | 8:18.18 | 8:19.00 | 37368 | 74792
4 | 16:37.18 | 5:42.25 | 74793 | 100467
5 | 22:19.43 | 10:49.72 | 100468 | 149214
6 | 33:09.40 | 8:26.30 | 149215 | 187194
7 | 41:35.70 | 4:21.59 | 187195 | 206828
8 | 45:57.54 | 7:41.58 | 206829 | 241461
9 | 53:39.37 | 6:40.37 | 241462 | 271498
10 | 60:19.74 | 7:55.62 | 271499 | 307185
Range status and errors
Selected range
Filename D:\EAC\Monteverdi - L'incoronazione di Poppea, Vartolo\CD3\Monteverdi - L'incoronazione di Poppea, Vartolo CD3.wav
Peak level 100.0 %
Extraction speed 2.1 X
Range quality 100.0 %
Test CRC A6250990
Copy CRC A6250990
Copy OK
No errors occurred
AccurateRip summary
Track 1 accurately ripped (confidence 4) [881D365F] (AR v2)
Track 2 accurately ripped (confidence 4) [005E0D1E] (AR v2)
Track 3 accurately ripped (confidence 4) [0C752902] (AR v2)
Track 4 accurately ripped (confidence 4) [4DB0C81F] (AR v2)
Track 5 cannot be verified as accurate (confidence 4) [F6A66F19], AccurateRip returned [9941585A] (AR v2)
Track 6 accurately ripped (confidence 4) [C0D7A5E0] (AR v2)
Track 7 accurately ripped (confidence 4) [B8AF200E] (AR v2)
Track 8 accurately ripped (confidence 4) [B207502F] (AR v2)
Track 9 accurately ripped (confidence 4) [A3E413D6] (AR v2)
Track 10 accurately ripped (confidence 4) [7500D741] (AR v2)
9 track(s) accurately ripped
1 track(s) could not be verified as accurate
Some tracks could not be verified as accurate
End of status report
---- CUETools DB Plugin V2.1.6
[CTDB TOCID: X7WhvHoqSQBOFb1U7mXhj.GrKmo-] found
Submit result: X7WhvHoqSQBOFb1U7mXhj.GrKmo- has been uploaded
Track | CTDB Status
1 | (0/1) No match
2 | (1/1) Accurately ripped
3 | (1/1) Accurately ripped
4 | (1/1) Accurately ripped
5 | (0/1) No match
6 | (1/1) Accurately ripped
7 | (1/1) Accurately ripped
8 | (1/1) Accurately ripped
9 | (1/1) Accurately ripped
10 | (1/1) Accurately ripped
==== Log checksum 0286862FE2A9828F7C5CDFE63274FE324B4AF8B73477602A87DBF01032E3A5B1 ====

CD4

Exact Audio Copy V1.0 beta 3 from 29. August 2011
EAC extraction logfile from 26. May 2015, 21:37
Monteverdi / L'incoronazione di Poppea, Vartolo CD4
Used drive : TSSTcorpCDDVDW SE-208AB Adapter: 1 ID: 0
Read mode : Secure
Utilize accurate stream : Yes
Defeat audio cache : Yes
Make use of C2 pointers : No
Read offset correction : 6
Overread into Lead-In and Lead-Out : No
Fill up missing offset samples with silence : Yes
Delete leading and trailing silent blocks : No
Null samples used in CRC calculations : Yes
Used interface : Native Win32 interface for Win NT & 2000
Used output format : Monkey's Audio Lossless Encoder
Selected bitrate : High Lossless Compression
Quality : High
Add ID3 tag : Yes
Command line compressor : C:\Program Files (x86)\Exact Audio Copy\MAC\MAC.exe
TOC of the extracted CD
Track | Start | Length | Start sector | End sector
---------------------------------------------------------
1 | 0:00.00 | 9:22.00 | 0 | 42149
2 | 9:22.00 | 4:35.18 | 42150 | 62792
3 | 13:57.18 | 6:20.58 | 62793 | 91350
4 | 20:18.01 | 2:01.14 | 91351 | 100439
5 | 22:19.15 | 1:48.48 | 100440 | 108587
6 | 24:07.63 | 6:15.31 | 108588 | 136743
7 | 30:23.19 | 7:48.51 | 136744 | 171894
8 | 38:11.70 | 7:50.05 | 171895 | 207149
9 | 46:02.00 | 4:20.60 | 207150 | 226709
10 | 50:22.60 | 4:43.03 | 226710 | 247937
11 | 55:05.63 | 20:46.01 | 247938 | 341388
Range status and errors
Selected range
Filename D:\EAC\Monteverdi - L'incoronazione di Poppea, Vartolo CD4.wav
Peak level 100.0 %
Extraction speed 2.1 X
Range quality 99.9 %
Test CRC 371C11B1
Copy CRC 371C11B1
Copy OK
No errors occurred
AccurateRip summary
Track 1 accurately ripped (confidence 4) [89783CF1] (AR v2)
Track 2 accurately ripped (confidence 4) [CBD708D4] (AR v2)
Track 3 accurately ripped (confidence 4) [E7A59CF4] (AR v2)
Track 4 accurately ripped (confidence 4) [3614424A] (AR v2)
Track 5 accurately ripped (confidence 4) [BE3B51C0] (AR v2)
Track 6 accurately ripped (confidence 4) [9E722823] (AR v2)
Track 7 accurately ripped (confidence 4) [3D2B8116] (AR v2)
Track 8 accurately ripped (confidence 4) [8DEB9C5B] (AR v2)
Track 9 cannot be verified as accurate (confidence 4) [E41A6C0F], AccurateRip returned [342E2A6A] (AR v2)
Track 10 accurately ripped (confidence 4) [C7514855] (AR v2)
Track 11 accurately ripped (confidence 4) [F2148DEC] (AR v2)
10 track(s) accurately ripped
1 track(s) could not be verified as accurate
Some tracks could not be verified as accurate
End of status report
---- CUETools DB Plugin V2.1.3
[CTDB TOCID: 2vwv9_9bjbpIXcW6AV.AC_nw07A-] found, Submit result: 2vwv9_9bjbpIXcW6AV.AC_nw07A- has been uploaded
[faf0c65a] (1/1) Differs in 12717 samples @00:00:09-00:00:34,48:56:40,49:14:20,49:15:56
You can use CUETools to repair this rip.
==== Log checksum 5DDA653F8589688096D94733A67199ECED906DEBCD2B5DBB6CD2BE79C07D87F1 ====

Содержание индексной карты (.CUE)

CD1

REM GENRE Opera
REM DATE 2005
REM DISCID 420DE206
REM COMMENT "ExactAudioCopy v1.0b3"
PERFORMER "Monteverdi"
TITLE "L'incoronazione di Poppea, Vartolo CD1"
FILE "Monteverdi - L'incoronazione di Poppea, Vartolo CD1.ape" WAVE
TRACK 01 AUDIO
TITLE "L'Incoronazione di Poppea: Prologo"
PERFORMER "Claudio Monteverdi"
INDEX 01 00:00:00
TRACK 02 AUDIO
TITLE "L'Incoronazione di Poppea: Atto I, Scena I"
PERFORMER "Claudio Monteverdi"
INDEX 01 10:28:65
TRACK 03 AUDIO
TITLE "L'Incoronazione di Poppea: Atto I, Scena II"
PERFORMER "Claudio Monteverdi"
INDEX 01 20:26:46
TRACK 04 AUDIO
TITLE "L'Incoronazione di Poppea: Atto I, Scena III"
PERFORMER "Claudio Monteverdi"
INDEX 01 25:27:20
TRACK 05 AUDIO
TITLE "L'Incoronazione di Poppea: Atto I, Scena IV"
PERFORMER "Claudio Monteverdi"
INDEX 01 36:39:55
TRACK 06 AUDIO
TITLE "L'Incoronazione di Poppea: Atto I, Scena V.2."
PERFORMER "Claudio Monteverdi"
INDEX 01 45:27:73

CD2

REM GENRE Opera
REM DATE 2005
REM DISCID 720D0008
REM COMMENT "ExactAudioCopy v1.0b3"
PERFORMER "Monteverdi"
TITLE "L'incoronazione di Poppea, Vartolo CD2"
FILE "Monteverdi - L'incoronazione di Poppea, Vartolo CD2.ape" WAVE
TRACK 01 AUDIO
TITLE "L'incoronazione di Poppea: Atto I, Scena VI"
PERFORMER "Claudio Monteverdi"
INDEX 01 00:00:00
TRACK 02 AUDIO
TITLE "L'incoronazione di Poppea: Atto I, Scena VII"
PERFORMER "Claudio Monteverdi"
INDEX 01 11:58:30
TRACK 03 AUDIO
TITLE "L'incoronazione di Poppea: Atto I, Scena VIII"
PERFORMER "Claudio Monteverdi"
INDEX 01 13:50:13
TRACK 04 AUDIO
TITLE "L'incoronazione di Poppea: Atto I, Scena IX"
PERFORMER "Claudio Monteverdi"
INDEX 01 16:36:14
TRACK 05 AUDIO
TITLE "L'incoronazione di Poppea: Atto I, Scena X"
PERFORMER "Claudio Monteverdi"
INDEX 01 24:14:59
TRACK 06 AUDIO
TITLE "L'incoronazione di Poppea: Atto I, Scena XI"
PERFORMER "Claudio Monteverdi"
INDEX 01 36:41:01
TRACK 07 AUDIO
TITLE "L'incoronazione di Poppea: Atto I, Scena XII"
PERFORMER "Claudio Monteverdi"
INDEX 01 45:25:56
TRACK 08 AUDIO
TITLE "L'incoronazione di Poppea: Atto I, Scena XIII"
PERFORMER "Claudio Monteverdi"
INDEX 01 47:54:46

CD3

REM GENRE Opera
REM DATE 2005
REM DISCID 900FFF0A
REM COMMENT "ExactAudioCopy v1.0b6"
PERFORMER "Monteverdi"
TITLE "L'incoronazione di Poppea, Vartolo CD3"
FILE "Monteverdi - L'incoronazione di Poppea, Vartolo CD3.ape" WAVE
TRACK 01 AUDIO
TITLE "L'incoronazione di Poppea: Atto II"
PERFORMER "Claudio Monteverdi"
INDEX 01 00:00:00
TRACK 02 AUDIO
TITLE "L'incoronazione di Poppea: Atto II, Scena I"
PERFORMER "Claudio Monteverdi"
INDEX 01 01:35:18
TRACK 03 AUDIO
TITLE "L'incoronazione di Poppea: Atto II, Scena II"
PERFORMER "Claudio Monteverdi"
INDEX 01 08:18:18
TRACK 04 AUDIO
TITLE "L'incoronazione di Poppea: Atto II, Scena III"
PERFORMER "Claudio Monteverdi"
INDEX 01 16:37:18
TRACK 05 AUDIO
TITLE "L'incoronazione di Poppea: Atto II, Scena IV"
PERFORMER "Claudio Monteverdi"
INDEX 01 22:19:43
TRACK 06 AUDIO
TITLE "L'incoronazione di Poppea: Atto II, Scena V"
PERFORMER "Claudio Monteverdi"
INDEX 01 33:09:40
TRACK 07 AUDIO
TITLE "L'incoronazione di Poppea: Atto II, Scena VII (la scena VI man...)"
PERFORMER "Claudio Monteverdi"
INDEX 01 41:35:70
TRACK 08 AUDIO
TITLE "L'incoronazione di Poppea: Atto II, Scena VIII"
PERFORMER "Claudio Monteverdi"
INDEX 01 45:57:54
TRACK 09 AUDIO
TITLE "L'incoronazione di Poppea: Atto II, Scena IX"
PERFORMER "Claudio Monteverdi"
INDEX 01 53:39:37
TRACK 10 AUDIO
TITLE "L'incoronazione di Poppea: Atto II, Scena X"
PERFORMER "Claudio Monteverdi"
INDEX 01 60:19:74

CD4

REM GENRE Opera
REM DATE 2005
REM DISCID 8E11C70B
REM COMMENT "ExactAudioCopy v1.0b3"
PERFORMER "Monteverdi"
TITLE "L'incoronazione di Poppea, Vartolo CD4"
FILE "Monteverdi - L'incoronazione di Poppea, Vartolo CD4.ape" WAVE
TRACK 01 AUDIO
TITLE "L'incoronazione di Poppea: Atto II, Scena X"
PERFORMER "Claudio Monteverdi"
INDEX 01 00:00:00
TRACK 02 AUDIO
TITLE "L'incoronazione di Poppea: Atto II, Scena XII"
PERFORMER "Claudio Monteverdi"
INDEX 01 09:22:00
TRACK 03 AUDIO
TITLE "L'incoronazione di Poppea: Atto II, Scena XIII"
PERFORMER "Claudio Monteverdi"
INDEX 01 13:57:18
TRACK 04 AUDIO
TITLE "L'incoronazione di Poppea: Atto III, Scena I"
PERFORMER "Claudio Monteverdi"
INDEX 01 20:18:01
TRACK 05 AUDIO
TITLE "L'incoronazione di Poppea: Atto III, Scena II"
PERFORMER "Claudio Monteverdi"
INDEX 01 22:19:15
TRACK 06 AUDIO
TITLE "L'incoronazione di Poppea: Atto III, Scena III"
PERFORMER "Claudio Monteverdi"
INDEX 01 24:07:63
TRACK 07 AUDIO
TITLE "L'incoronazione di Poppea: Atto III, Scena IV"
PERFORMER "Claudio Monteverdi"
INDEX 01 30:23:19
TRACK 08 AUDIO
TITLE "L'incoronazione di Poppea: Atto III, Scena V"
PERFORMER "Claudio Monteverdi"
INDEX 01 38:11:70
TRACK 09 AUDIO
TITLE "L'incoronazione di Poppea: Atto III, Scena VI"
PERFORMER "Claudio Monteverdi"
INDEX 01 46:02:00
TRACK 10 AUDIO
TITLE "L'incoronazione di Poppea: Atto III, Scena VII"
PERFORMER "Claudio Monteverdi"
INDEX 01 50:22:60
TRACK 11 AUDIO
TITLE "L'incoronazione di Poppea: Atto III, Scena VIII.2"
PERFORMER "Claudio Monteverdi"
INDEX 01 55:05:63
Synopsis
The action takes place in Imperial Rome around AD 60, in and around Poppea's villa and in various locations within the imperial palace.
Prologue
The goddesses of Fortune and Virtue dispute which of them has the most power over humankind. They are interrupted by the god of Love, who claims greater power than either: "I tell the virtues what to do, I govern the fortunes of men." When they have heard his story, he says, they will admit his superior powers.
Act 1
The upper body, unclothed, of a young woman carrying a thin transparent cloth. She has tight curled hair swept from her face, and is facing towards the left although her eyes look directly from the painting. A plaque in front of her carries the words "Sabina Poppea".
Poppea, represented in a 16th-century painting
Ottone arrives at Poppea's villa, intent on pursuing his love. Seeing the house guarded by the Emperor Nerone's soldiers he realises he has been supplanted, and his love song turns to a lament: "Ah, ah, perfidious Poppea!" He leaves, and the waiting soldiers gossip about their master's amorous affairs, his neglect of matters of state and his treatment of the Empress Ottavia. Nerone and Poppea enter and exchange words of love before Nerone departs. Poppea is warned by her nurse, Arnalta, to be careful of the empress's wrath and to distrust Nerone's apparent love for her, but Poppea is confident: "I fear no setback at all."
The scene switches to the palace, where Ottavia bemoans her lot; "Despised queen, wretched consort of the emperor!" Her nurse suggests she take a lover of her own, advice which Ottavia angrily rejects. Seneca, Nerone's former tutor, addresses the empress with flattering words, and is mocked by Ottavia's page, Valleto, who threatens to set fire to the old man's beard. Left alone, Seneca receives a warning from the goddess Pallade that his life is in danger. Nerone enters and confides that he intends to displace Ottavia and marry Poppea. Seneca demurs; such a move would be divisive and unpopular. "I care nothing for the senate and the people," replies Nero, and when the sage persists he is furiously dismissed. Poppea joins Nerone, and tells him that Seneca claims to be the power behind the imperial throne. This so angers Nerone that he instructs his guards to order Seneca to commit suicide.
After Nero leaves, Ottone steps forward and after failing to persuade Poppea to reinstate him in her affections, privately resolves to kill her. He is then comforted by a noblewoman, Drusilla; realising that he can never regain Poppea he offers to marry Drusilla, who joyfully accepts him. But Ottone admits to himself: "Drusilla is on my lips, Poppea is in my heart."
Act 2
An elderly man, unclothed except for a loose cloth placed on his body, is supported in the arms of an associate, while others crowd around looking anxiously on.
The Death of Seneca (Luca Giordano, 1684)
In his garden, Seneca learns from the god Mercurio that he is soon to die. The order duly arrives from Nerone, and Seneca instructs his friends to prepare a suicide bath. His followers try to persuade him to remain alive, but he rejects their pleading. "The warm current of my guiltless blood shall carpet with royal purple my road to death." At the palace Ottavia's page flirts with a lady-in-waiting, while Nerone and the poet Lucano celebrate the death of Seneca in a drunken, cavorting song contest, and compose love songs in honour of Poppea. Elsewhere in the palace Ottone, in a long soliloquy, ponders how he could have thought to kill Poppea with whom he remains hopelessly in love. He is interrupted by a summons from Ottavia, who to his dismay orders him to kill Poppea. Threatening to denounce him to Nerone unless he complies, she suggests that he disguise himself as a woman to commit the deed. Ottone agrees to do as she bids, privately calling on the gods to relieve him of his life. He then persuades Drusilla to lend him her clothes.
In the garden of Poppea's villa, Arnalta sings her mistress to sleep while the god of Love looks on. Ottone, now disguised as Drusilla, enters the garden and raises his sword to kill Poppea. Before he can do so, Love strikes the sword from his hand, and he runs away. His fleeing figure is seen by Arnalta and the now awakened Poppea, who believe that he is Drusilla. They call on their servants to give chase, while Love sings triumphantly "I protected her!"
Act 3
Drusilla muses on the life of happiness before her, when Arnalta arrives with a lictor. Arnalta accuses Drusilla of being Poppea's assailant, and she is arrested. As Nerone enters, Arnalta denounces Drusilla, who protests her innocence. Threatened with torture unless she names her accomplices, Drusilla decides to protect Ottone by confessing her own guilt. Nerone commands her to suffer a painful death, at which point Ottone rushes in and reveals the truth: that he had acted alone, at the command of the Empress Ottavia, and that Drusilla was innocent of complicity. Nerone is impressed by Drusilla's fortitude, and in an act of clemency spares Ottone's life, ordering him banished. Drusilla chooses exile with him. Nerone now feels entitled to act against Ottavia and she is exiled, too. This leaves the way open for him to marry Poppea, who is overjoyed: "No delay, no obstacle can come between us now."
Ottavia bids a quiet farewell to Rome, while in the throne room of the palace the coronation ceremony for Poppea is prepared. The Consuls and Tribunes enter, and after a brief eulogy place the crown on Poppea's head. Watching over the proceedings is the god of Love with his mother, Venere and a divine chorus. Nerone and Poppea sing a rapturous love duet ("I gaze at you, I possess you") as the opera ends.



Показать сообщения:    

Текущее время: 04-Дек 02:55

Часовой пояс: UTC + 3


Вы не можете начинать темы
Вы не можете отвечать на сообщения
Вы не можете редактировать свои сообщения
Вы не можете удалять свои сообщения
Вы не можете голосовать в опросах
Вы не можете прикреплять файлы к сообщениям
Вы не можете скачивать файлы