(Оpera) Gioachino Rossini - Mose / Джоаккино Россини - Моисей (Lamberto Gardelli; Gregor Jozsef, Solyom-Nagy Sandor, Kalmar Magda, Molnar Andras, Hamari Julia), 1981 / 2007, APE (image+.cue), lossless


 

[Цитировать]

Gioachino Rossini - Mosè / Джоаккино Россини - Моисей (Lamberto Gardelli; Gregor Jozsef, Solyom-Nagy Sandor, Kalmar Magda, Molnar Andras, Hamari Julia)
Жанр: Оpera
Страна-производитель диска: Bенгрия
Год издания диска: 2007
Издатель (лейбл): Hungaroton Classic
Дата записи: 1981
Аудиокодек: APE
Тип рипа: image+.cue
Битрейт аудио: lossless
Продолжительность: 158:19
Источник: (matthaus)
Наличие сканов в содержимом раздачи: да
Исполнители:
Mosè - Gregor Jozsef,
Faraone - Solyom-Nagy Sandor,
Anaide - Kalmar Magda,
Elisero - Molnar Andras,
Sinaide - Hamari Julia.
Lamberto Gardelli, Conductor,
Magyar Radio & TV Orchestra,
Magyar State Opera Chorus.

Треклист

Disc 1:
1. Preludio
Act I:
2. Introduzione
3. Scene 1. Ah! dell'empio al potere feroce
4. Scene 2. Cessi omai dolor cotanto
5. Scene 2. Recitativo. Impaziente pel ritorno io sono / Scene 3. Gloria al Signor!
6. Scene 3. Mosè, t'accosta
7. Scene 3. Quartetto. Dio possente in pace
8. Scene 3. [Coro] La dolce aurora
9. Scene 3. Recitativo. Cadran, cadran quest'oggi
10. Scene 4. Recitativo. Dio, che vegli su me
11. Scene 4. Duetto. Ah, se puoi così lasciarmi
12. Scene 4. Non è ver che stringe il cielo
13. Scene 4. Ah! qual suon!
14. Scene 4. Recitativo. Per comando del Re
15. Finale primo. Scene 5. [Marcia e Coro] Al'etra, al ciel
16. Finale primo. Scene 5. [Duettino] Tutto sorride intorno
17. Finale primo. Scene 6. Che narri? / Scene 7. Fermate, audaci
18. Finale primo. Scene 7. All'idea di tanto accesso
19. Finale primo. Scene 7. [Stretta] Cielo, qual turbine!
Disc 2:
Act II:
1. Scene 1. Introduzione - Terzetto. Ah! Chi ne aita?
2. Scene 2. Recitativo. La voce tua mi chiama
3. Scene 2. [Invocazione] Eterno! immenso!
4. Scene 2. Quintetto. Celeste man piacata!
5. Scene 2. Eglizii! Faraone!
6. Scene 2. Voci di giubilo
7. Scene 4. Recitativo. Qual abisso di mali!
8. Scene 4. Rondo finale. Ah! d'un afflitta il duolo
9. Scene 4. Rondo finale. Ma tu taci?... giusto Cielo!
Act III:
10. Marcia
11. Scene 1. Coro d'Introduzione. Oh, tu che sei del Ciel
12. Scene 1. Recitativo. Divini appoggi
13. Scene 2. Recitativo. La tua promessa
14. Scene 3. Finale terzo. A tristo fin ridotti
15. Scene 3. Finale terzo. Mi manca la voce
16. Scene 3. Finale terzo. [Stretta] Non, l'ardor in voi manchi
Disc 3:
Act IV:
1. Preludio
2. Scene 1. Recitativo. Dove mi guidi tu?
3. Scene 1. Duettino. Quale assalto! qual cimento
4. Scene 2. Gran Scena. È questo, o figli
5. Scene 2. Rondo. Qual orribile sciagura!
6. Scene 2. Io l'amai, per te spensi
7. Scene 2. Recitativo. Udisti il suo voler?
8. Scene 2. Marcia
9. Scene 3. Recitativo. In tal momento orribile
10. Scene 3. Preghiera. Dal tuo stellato soglio
11. Scene 3. Finale Quarto. Qual fragor!
12. Finale quarto. Scena ultima. Dove son dessi?

Содержание индексной карты (.CUE)Содержание индексной карты (.CUE) CD 1

REM GENRE "Classical"
REM DATE 1996
REM COMMENT "Hungarian State Opera Orchestra - Dir: Lamberto Gardelli Hunaroton HCD 12290-92"
Hunaroton HCD 12290-92
""
PERFORMER "Rossini"
TITLE "Mosé /CD1"
FILE "CDImage.ape" WAVE
TRACK 01 AUDIO
TITLE "Prélude"
PERFORMER "Rossini"
INDEX 01 00:00:00
TRACK 02 AUDIO
TITLE "Acte 1 - Introduction"
PERFORMER "Rossini"
INDEX 01 02:38:32
TRACK 03 AUDIO
TITLE "Scène 1"
PERFORMER "Rossini"
INDEX 01 04:19:65
TRACK 04 AUDIO
TITLE "Scène 2"
PERFORMER "Rossini"
INDEX 01 06:12:10
TRACK 05 AUDIO
TITLE "Récitatif"
PERFORMER "Rossini"
INDEX 01 10:14:55
TRACK 06 AUDIO
TITLE "Scène 3"
PERFORMER "Rossini"
INDEX 01 15:55:60
TRACK 07 AUDIO
TITLE "Quatuor"
PERFORMER "Rossini"
INDEX 01 18:19:70
TRACK 08 AUDIO
TITLE "Choeur"
PERFORMER "Rossini"
INDEX 01 21:28:55
TRACK 09 AUDIO
TITLE "Récitatif"
PERFORMER "Rossini"
INDEX 01 24:31:00
TRACK 10 AUDIO
TITLE "Scéne 4 - Récitatif"
PERFORMER "Rossini"
INDEX 01 25:51:17
TRACK 11 AUDIO
TITLE "Duo"
PERFORMER "Rossini"
INDEX 01 28:51:55
TRACK 12 AUDIO
TITLE "Duo"
PERFORMER "Rossini"
INDEX 01 31:42:52
TRACK 13 AUDIO
TITLE "Duo"
PERFORMER "Rossini"
INDEX 01 34:09:35
TRACK 14 AUDIO
TITLE "Récitatif - Premier final"
PERFORMER "Rossini"
INDEX 01 37:27:17
TRACK 15 AUDIO
TITLE "Scène 5 - Marche et choeur"
PERFORMER "Rossini"
INDEX 01 38:27:35
TRACK 16 AUDIO
TITLE "Petit duo"
PERFORMER "Rossini"
INDEX 01 42:03:07
TRACK 17 AUDIO
TITLE "Scène 6"
PERFORMER "Rossini"
INDEX 01 46:56:70
TRACK 18 AUDIO
TITLE "Scène 7"
PERFORMER "Rossini"
INDEX 01 49:20:12
TRACK 19 AUDIO
TITLE "Strette"
PERFORMER "Rossini"
INDEX 01 54:00:30

Содержание индексной карты (.CUE) CD 2

REM GENRE "Classical"
REM DATE 1996
REM COMMENT "Hungarian State Opera Orchestra - Dir: Lamberto Gardelli Hunaroton HCD 12290-92"
Hunaroton HCD 12290-92'
PERFORMER "Rossini"
TITLE "Mosé \CD2"
FILE "CDImage.ape" WAVE
TRACK 01 AUDIO
TITLE "Acte 2 -Scéne 1"
PERFORMER "Rossini"
INDEX 01 00:00:00
TRACK 02 AUDIO
TITLE "Scéne 2 - Récitatif"
PERFORMER "Rossini"
INDEX 01 08:06:07
TRACK 03 AUDIO
TITLE "Invocation"
PERFORMER "Rossini"
INDEX 01 10:37:72
TRACK 04 AUDIO
TITLE "Quintette"
PERFORMER "Rossini"
INDEX 01 12:48:00
TRACK 05 AUDIO
TITLE "Scène 3"
PERFORMER "Rossini"
INDEX 01 17:13:57
TRACK 06 AUDIO
TITLE "Scène 4"
PERFORMER "Rossini"
INDEX 01 18:56:50
TRACK 07 AUDIO
TITLE "Récitatif"
PERFORMER "Rossini"
INDEX 01 22:12:45
TRACK 08 AUDIO
TITLE "Rondo final 1"
PERFORMER "Rossini"
INDEX 01 24:48:22
TRACK 09 AUDIO
TITLE "Rondo final 2"
PERFORMER "Rossini"
INDEX 01 28:31:47
TRACK 10 AUDIO
TITLE "Rondo final 3"
PERFORMER "Rossini"
INDEX 01 30:19:15
TRACK 11 AUDIO
TITLE "Acta 3 - Marche - Scène 1"
PERFORMER "Rossini"
INDEX 01 34:17:50
TRACK 12 AUDIO
TITLE "Choeur d'introduction"
PERFORMER "Rossini"
INDEX 01 35:58:55
TRACK 13 AUDIO
TITLE "Récitatif"
PERFORMER "Rossini"
INDEX 01 40:00:00
TRACK 14 AUDIO
TITLE "Scène 2 - Récitatif"
PERFORMER "Rossini"
INDEX 01 42:22:30
TRACK 15 AUDIO
TITLE "Scène 3"
PERFORMER "Rossini"
INDEX 01 44:45:45
TRACK 16 AUDIO
TITLE "Trio final"
PERFORMER "Rossini"
INDEX 01 48:12:45
TRACK 17 AUDIO
TITLE "Strette"
PERFORMER "Rossini"
INDEX 01 52:59:00

Содержание индексной карты (.CUE) CD 3

REM GENRE "Classical"
REM DATE 1996
REM COMMENT "Hungarian State Opera Orchestra - Dir: Lamberto Gardelli"
Hunaroton HCD 12290-92'
PERFORMER "Rossini"
TITLE "Mosé /CD3"
FILE "CDImage.ape" WAVE
TRACK 01 AUDIO
TITLE "Acte 4 - Prélude"
PERFORMER "Rossini"
INDEX 01 00:00:00
TRACK 02 AUDIO
TITLE "Scène 1 - Récitatif"
PERFORMER "Rossini"
INDEX 01 03:22:17
TRACK 03 AUDIO
TITLE "Duo"
PERFORMER "Rossini"
INDEX 01 05:57:40
TRACK 04 AUDIO
TITLE "Scène 2 - Grande scène"
PERFORMER "Rossini"
INDEX 01 10:01:57
TRACK 05 AUDIO
TITLE "Rondo"
PERFORMER "Rossini"
INDEX 01 12:05:65
TRACK 06 AUDIO
TITLE "Choeur"
PERFORMER "Rossini"
INDEX 01 17:33:17
TRACK 07 AUDIO
TITLE "Recitatif"
PERFORMER "Rossini"
INDEX 01 19:00:55
TRACK 08 AUDIO
TITLE "Marche"
PERFORMER "Rossini"
INDEX 01 19:56:07
TRACK 09 AUDIO
TITLE "Scène 3 - Récitatif"
PERFORMER "Rossini"
INDEX 01 20:54:12
TRACK 10 AUDIO
TITLE "Preghiera"
PERFORMER "Rossini"
INDEX 01 21:47:25
TRACK 11 AUDIO
TITLE "Quatuor final"
PERFORMER "Rossini"
INDEX 01 26:42:50
TRACK 12 AUDIO
TITLE "Scène final"
PERFORMER "Rossini"
INDEX 01 29:10:37

Отчет Audiochecker

AUDIOCHECKER v2.0 beta (build 457) - by Dester - opdester@freemail.hu
~~~~~~~~~~~~~~~~~~~~~~~~~~~~~~~~~~
Started at: воскресенье, 21. 06. 2015. - 0:16.30
3 files found
1 -===- C:\Users\Sony\Downloads\Rossini - Mose - (Gardelli, 1981)\DISC 1\CDImage.ape
Extracted successfully
Conclusion: this track is CDDA with probability 100%
Tempfile successfully deleted.
2 -===- C:\Users\Sony\Downloads\Rossini - Mose - (Gardelli, 1981)\DISC 2\CDImage.ape
Extracted successfully
Conclusion: this track is CDDA with probability 100%
Tempfile successfully deleted.
3 -===- C:\Users\Sony\Downloads\Rossini - Mose - (Gardelli, 1981)\DISC 3\CDImage.ape
Extracted successfully
Conclusion: this track is CDDA with probability 100%
Tempfile successfully deleted.
Finished at: воскресенье, 21. 06. 2015. - 1:06.26 (operation time: 0:49.55)



Показать сообщения:    

Текущее время: 03-Дек 12:35

Часовой пояс: UTC + 3


Вы не можете начинать темы
Вы не можете отвечать на сообщения
Вы не можете редактировать свои сообщения
Вы не можете удалять свои сообщения
Вы не можете голосовать в опросах
Вы не можете прикреплять файлы к сообщениям
Вы не можете скачивать файлы