[TR24][OF] Ludwig van Beethoven - Piano Sonatas Nos. 8, 14, 23 (Pathétique/Pathetique, Moonlight, Appassionata) - Yundi Li (李雲迪) - 2013 (Classical)


Статистика раздачи [Обновить пиров]
Размер:  1.05 GB   |    Зарегистрирован:  8 месяцев 20 дней   |    Скачан:  0 раз

Полного источника не было: Никогда

 
   
 
 
 

[Цитировать]

Ludwig van Beethoven
Pathétique, Moonlight, Appassionata
YUNDI
-Год издания: 2013 | Жанр: Classical
Издатель: Deutsche Grammophon | Продолжительность: 00:57:12
Наличие сканов: Sleeve, Digital Booklet- -Контейнер: FLAC (*.flac) | Тип рипа: tracks
Разрядность: 24bit /96kHz | Количество каналов: 2.0-YUNDI, piano
Recorded at TELDEX Studio, Berlin, 6-7/2012
-Треклист
Ludwig van Beethoven (1770-1827)
Piano Sonata No.8 in C minor, op.13 ‘Pathétique’
01.I. Grave – Allegro molto e con brio (8:30)
02. II. Adagio cantabile (5:13)
03. III. Rondo: Allegro (4:22)
Piano Sonata No.14 in C sharp minor, op.27 No.2 ‘Moonlight’
04. I. Adagio sostenuto (7:06)
05. II. Allegretto (2:00)
06. III. Presto agitato – Adagio – Presto agitato (6:51)
Piano Sonata No.23 in F minor, op.57 ‘Appassionata’
07. I. Allegro assai (9:20)
08. II. Andante con moto (6:22)
09. III. Allegro, ma non troppo – Presto (7:29)

О релизе


Impressive statement
Following his recordings on Deutsche Grammophon of music by Frédéric Chopin and Franz Liszt, Chinese pianist Yundi Li takes on the three most popular piano sonatas of Ludwig van Beethoven, the "Pathétique," "Moonlight," and "Appassionata." Known for having brilliant technique and dynamic showmanship, Yundi plays against type in these beloved works, which call for more introspection and expressiveness than might be expected from him. Even though the outer movements of "Pathétique" and "Appassionata" and the last movement of "Moonlight" give Yundi ample opportunity to demonstrate his agility, power, and high energy, they are relatively restrained, compared to the kind of virtuosic fare that made him an international star. Furthermore, the Classical impulse that informed these sonatas calls for a balance of moods, not just bravura playing. The slow movements let Yundi show he is more than just a flashy technician, and he gives carefully considered performances that work, albeit as fairly Romantic readings. Because Beethoven's piano sonatas have been interpreted and recorded by pianists too numerous to count, it's easy to dismiss performances that fall short of the great recordings of the past, especially any that seem addressed to a mainstream audience. Yundi's album will not impress connoisseurs who have already settled on their favorite recordings, though casual listeners may like what Yundi does with the music and learn more about Beethoven as a result. (Blair Sanderson, All Music Guide)
"In the Pathetique's first-movement introduction, Yundi's pronounced dynamic contrasts and stable pulse marked by the tiniest expressive adjustments compel serious listening, and so does the thrust of his broken octaves in the movements' main section." (Gramophone)
"The warmth of the colouring, the recording too, certainly makes this Beethoven recital - Yundi's first - different from the norm. Even when the music indicates something granitic, our pianist still stands on velvet. Drama and impetuosity abound in the first movement of the Pathétique." (The Times)

ОтчётыДинамический диапазон

foobar2000 1.2.2 / Dynamic Range Meter 1.1.1
log date: 2015-06-14 23:34:11
--------------------------------------------------------------------------------
Analyzed: Yundi Li / Beethoven: Pathétique, Moonlight, Appassionata
--------------------------------------------------------------------------------
DR Peak RMS Duration Track
--------------------------------------------------------------------------------
DR15 -0.54 dB -19.74 dB 8:30 ?-Piano Sonata No.8 in C minor, op.13 ‘Pathétique’ - I. Grave – Allegro molto e con brio
DR15 -5.96 dB -27.35 dB 5:13 ?-Piano Sonata No.8 in C minor, op.13 ‘Pathétique’ - II. Adagio cantabile
DR14 -0.19 dB -20.43 dB 4:22 ?-Piano Sonata No.8 in C minor, op.13 ‘Pathétique’ - III. Rondo: Allegro
DR13 -12.11 dB -29.81 dB 7:06 ?-Piano Sonata No.14 in C sharp minor, op.27 No.2 ‘Moonlight’ - I. Adagio sostenuto
DR13 -7.09 dB -23.51 dB 2:00 ?-Piano Sonata No.14 in C sharp minor, op.27 No.2 ‘Moonlight’ - II. Allegretto
DR13 0.00 dB -17.65 dB 6:51 ?-Piano Sonata No.14 in C sharp minor, op.27 No.2 ‘Moonlight’ - III. Presto agitato – Adagio – Presto agitato
DR13 -0.08 dB -18.40 dB 9:20 ?-Piano Sonata No.23 in F minor, op.57 ‘Appassionata’ - I. Allegro assai
DR15 -0.26 dB -24.82 dB 6:22 ?-Piano Sonata No.23 in F minor, op.57 ‘Appassionata’ - II. Andante con moto
DR13 -0.07 dB -17.20 dB 7:29 ?-Piano Sonata No.23 in F minor, op.57 ‘Appassionata’ - III. Allegro, ma non troppo – Presto
--------------------------------------------------------------------------------
Number of tracks: 9
Official DR value: DR14
Samplerate: 96000 Hz
Channels: 2
Bits per sample: 24
Bitrate: 2680 kbps
Codec: FLAC
================================================================================

Скриншот спектра частот

Доп. информация

При скачивании, если необходимо, переименуйте папку, в которой будет находиться альбомБольшая просьба к скачавшим поддерживать раздачу! Помогайте другим, ведь вам тоже может понадобиться помощь!Не забываем говорить "Спасибо"!Комментарии приветствуются!
[teatrix.ru].t21500.torrent 
Торрент: Зарегистрирован [ 2016-03-20 12:28 ] · 9D9407CD72FB5513E0CD75612A42D24ABA06F5EF

Скачать .torrent

Скачать

12 KB

Статус: проверено
Скачан: 0 раз
Размер: 1.05 GB
terms.php



Быстрый ответ

Имя:

      
Для отправки сообщений необходимо включить JavaScript
Показать сообщения:    

Текущее время: 09-Дек 22:24

Часовой пояс: UTC + 3


Вы можете начинать темы
Вы можете отвечать на сообщения
Вы не можете редактировать свои сообщения
Вы не можете удалять свои сообщения
Вы не можете голосовать в опросах
Вы не можете прикреплять файлы к сообщениям
Вы можете скачивать файлы