(Choir, Orchestral) Лили Буланже / Lili Boulanger - 3 Psaumes; Pour les funerailles d'un soldat; D'un soir triste; D'un matin de printemps; Vieille priere Bouddhique (Luxembourg PO, Mark Stringer) - 2007, FLAC (tracks+.cue) lossless


Статистика раздачи [Обновить пиров]
Размер:  263 MB   |    Зарегистрирован:  8 месяцев 17 дней   |    Скачан:  0 раз

Полного источника не было: Никогда

 
   
 
 
 

[Цитировать]

Lili Boulanger - 3 Psaumes; Pour les funerailles d'un soldat; D'un soir triste; D'un matin de printemps; Vieille priere Bouddhique
Жанр: Choir, Orchestral
Страна-производитель диска: France
Год издания диска: 2007
Издатель (лейбл): Timpani
Номер по каталогу: 1C1148
Дата записи: 1998
Аудиокодек: FLAC
Тип рипа: tracks+.cue
Битрейт аудио: lossless
Продолжительность: 67'22
Источник: скачано с
Наличие сканов в содержимом раздачи: да
Треклист:
Lili Boulanger (1893-1918)
01 Psalm 24, "La terre appartient a l'Eternel" (1916) (3:02)
02 Pour les funerailles d'un soldat (1916) (8:28)
03 Psalm 129, "Ils m'ont assez opprime" (1916) (6:47)
04 D'un soir triste, poeme symphonique (1917–18) (10:32)
05 D'un matin de printemps, poeme symphonique (1917–18) (5:02)
06 Psalm 130, "Du fond de l'abime" (1914–17) (25:03)
07 Vieille priere Bouddhique (1917) (7:48)
Исполнители:
Martial Defontaine, tenor (1, 6, 7)
Vincent Le Texier, baryton (2)
Sonia de Beaufort, mezzo (6)
Choeur Symphonique de Namur (1-3, 6-7)
Orchestre Philharmonique du Luxembourg
Mark Stringer, direction
rec. Luxembourg Conservatoire, sep. 1998

Лог создания рипа

Exact Audio Copy V1.0 beta 3 from 29. August 2011
EAC extraction logfile from 27. May 2014, 11:15
Mark Stringer / Psaume 24
Used drive : PLEXTOR DVDR PX-800A Adapter: 0 ID: 0
Read mode : Secure
Utilize accurate stream : Yes
Defeat audio cache : No
Make use of C2 pointers : No
Read offset correction : 48
Overread into Lead-In and Lead-Out : No
Fill up missing offset samples with silence : Yes
Delete leading and trailing silent blocks : No
Null samples used in CRC calculations : Yes
Used interface : Native Win32 interface for Win NT & 2000
Gap handling : Appended to previous track
Used output format : User Defined Encoder
Selected bitrate : 1024 kBit/s
Quality : High
Add ID3 tag : No
Command line compressor : C:\Program Files\Exact Audio Copy\FLAC\FLAC.EXE
Additional command line options : -8 -V -T "ARTIST=%artist%" -T "TITLE=%title%" -T "ALBUM=%albumtitle%" -T "DATE=%year%" -T "TRACKNUMBER=%tracknr%" -T "GENRE=%genre%" -T "PERFORMER=%albuminterpret%" -T "COMPOSER=%composer%" %haslyrics%--tag-from-file=LYRICS="%lyricsfile%"%haslyrics% -T "ALBUMARTIST=%albumartist%" -T "DISCNUMBER=%cdnumber%" -T "TOTALDISCS=%totalcds%" -T "TOTALTRACKS=%numtracks%" -T "COMMENT=%comment%" %source% -o %dest%
TOC of the extracted CD
Track | Start | Length | Start sector | End sector
---------------------------------------------------------
1 | 0:00.32 | 3:08.50 | 32 | 14181
2 | 3:09.07 | 8:34.63 | 14182 | 52794
3 | 11:43.70 | 6:53.72 | 52795 | 83841
4 | 18:37.67 | 10:36.18 | 83842 | 131559
5 | 29:14.10 | 5:11.10 | 131560 | 154894
6 | 34:25.20 | 25:10.37 | 154895 | 268181
7 | 59:35.57 | 7:48.53 | 268182 | 303334
Track 1
Filename G:\EAC RIPS\Lili Boulanger - Oeuvres pour choeur et orchestre (1998) M.Stringer [FLAC] {1C1046}\01 - Psaume 24.wav
Pre-gap length 0:00:02.42
Peak level 100.0 %
Extraction speed 4.9 X
Track quality 100.0 %
Test CRC 1D211BC9
Copy CRC 1D211BC9
Accurately ripped (confidence 7) [C1151FA4] (AR v1)
Copy OK
Track 2
Filename G:\EAC RIPS\Lili Boulanger - Oeuvres pour choeur et orchestre (1998) M.Stringer [FLAC] {1C1046}\02 - Pour les funérailles d'un soldat.wav
Pre-gap length 0:00:05.09
Peak level 100.0 %
Extraction speed 5.7 X
Track quality 100.0 %
Test CRC 2613C1A9
Copy CRC 2613C1A9
Accurately ripped (confidence 8) [9AB8ADAE] (AR v1)
Copy OK
Track 3
Filename G:\EAC RIPS\Lili Boulanger - Oeuvres pour choeur et orchestre (1998) M.Stringer [FLAC] {1C1046}\03 - Psaume 129.wav
Pre-gap length 0:00:05.50
Peak level 100.0 %
Extraction speed 6.5 X
Track quality 99.9 %
Test CRC 8188E994
Copy CRC 8188E994
Accurately ripped (confidence 8) [2021C8F9] (AR v1)
Copy OK
Track 4
Filename G:\EAC RIPS\Lili Boulanger - Oeuvres pour choeur et orchestre (1998) M.Stringer [FLAC] {1C1046}\04 - D'un soir triste.wav
Pre-gap length 0:00:05.56
Peak level 100.0 %
Extraction speed 7.4 X
Track quality 100.0 %
Test CRC F495748E
Copy CRC F495748E
Accurately ripped (confidence 8) [BB7988A8] (AR v1)
Copy OK
Track 5
Filename G:\EAC RIPS\Lili Boulanger - Oeuvres pour choeur et orchestre (1998) M.Stringer [FLAC] {1C1046}\05 - D'un matin de printemps.wav
Pre-gap length 0:00:03.26
Peak level 100.0 %
Extraction speed 8.1 X
Track quality 100.0 %
Test CRC 60160B1A
Copy CRC 60160B1A
Accurately ripped (confidence 8) [84DEEA33] (AR v1)
Copy OK
Track 6
Filename G:\EAC RIPS\Lili Boulanger - Oeuvres pour choeur et orchestre (1998) M.Stringer [FLAC] {1C1046}\06 - Psaume 130 'Du fond de l'abîme'.wav
Pre-gap length 0:00:08.73
Peak level 100.0 %
Extraction speed 0.5 X
Track quality 96.9 %
Test CRC 111D1730
Copy CRC 977CAE65
Cannot be verified as accurate (confidence 7) [36FD22F0], AccurateRip returned [0456BB87] (AR v2)
Copy OK
Track 7
Filename G:\EAC RIPS\Lili Boulanger - Oeuvres pour choeur et orchestre (1998) M.Stringer [FLAC] {1C1046}\07 - Vieille prière bouddhique.wav
Pre-gap length 0:00:06.40
Peak level 100.0 %
Extraction speed 14.3 X
Track quality 100.0 %
Test CRC 9918EEE9
Copy CRC 9918EEE9
Accurately ripped (confidence 7) [F47D52B9] (AR v1)
Copy OK
6 track(s) accurately ripped
1 track(s) could not be verified as accurate
Some tracks could not be verified as accurate
No errors occurred
End of status report
==== Log checksum 93F3DB11839F46A550BC38F1792A8966D78F0C6D0AAB9D558C20B0A7F1F7EE8B ====

Содержание индексной карты (.CUE)

REM GENRE Classical
REM DATE 1998
REM DISCID 5D0FCC07
REM COMMENT "ExactAudioCopy v1.0b3"
PERFORMER "Mark Stringer "
TITLE "Psaume 24"
FILE "01 - Psaume 24.wav" WAVE
TRACK 01 AUDIO
TITLE "Psaume 24"
PERFORMER "Mark Stringer "
ISRC FRY469800370
PREGAP 00:00:32
INDEX 01 00:00:00
TRACK 02 AUDIO
TITLE "Pour les funйrailles d'un soldat"
PERFORMER "Mark Stringer "
ISRC FRY469800380
INDEX 00 03:03:43
FILE "02 - Pour les funйrailles d'un soldat.wav" WAVE
INDEX 01 00:00:00
TRACK 03 AUDIO
TITLE "Psaume 129"
PERFORMER "Mark Stringer "
ISRC FRY469800390
INDEX 00 08:29:25
FILE "03 - Psaume 129.wav" WAVE
INDEX 01 00:00:00
TRACK 04 AUDIO
TITLE "D'un soir triste"
PERFORMER "Mark Stringer "
ISRC FRY469800400
INDEX 00 06:48:30
FILE "04 - D'un soir triste.wav" WAVE
INDEX 01 00:00:00
TRACK 05 AUDIO
TITLE "D'un matin de printemps"
PERFORMER "Mark Stringer "
ISRC FRY469800410
INDEX 00 10:32:73
FILE "05 - D'un matin de printemps.wav" WAVE
INDEX 01 00:00:00
TRACK 06 AUDIO
TITLE "Psaume 130 'Du fond de l'abоme'"
PERFORMER "Mark Stringer "
ISRC FRY469800420
INDEX 00 05:02:30
FILE "06 - Psaume 130 'Du fond de l'abоme'.wav" WAVE
INDEX 01 00:00:00
TRACK 07 AUDIO
TITLE "Vieille priиre bouddhique"
PERFORMER "Mark Stringer "
ISRC FRY469800430
INDEX 00 25:04:07
FILE "07 - Vieille priиre bouddhique.wav" WAVE
INDEX 01 00:00:00
Доп. информация: Лили Буланже, несмотря на раннюю трагическую смерть в 24-летнем возрасте, внесла огромный вклад во французскую музыкальную культуру. Её стиль, сложившийся под влиянием Форе и Дебюсси, несколько опередил своё время, предвосхитив творчества Онеггера. Для музыки Буланже характерна особенная трагическая нота с литургическим оттенком (влияние болезни, потери близких и событий Первой мировой войны), экспрессивность, смелая колоритная гармония с активным использованием диссонансов, оригинальность оркестрового тембра (стальной колорит, склонность к сочетанию духовых и ударных), и при всём при этом она звучит просто и сердечно. На диске представлены её лучшие вокальные и оркестровые сочинения - Три псалма (1914-1917), воспринятые современниками как молитвы о мире - Псалом 24, "Земля принадлежит Господу" (1916); Псалом 129: "Много теснили меня от юности моей"; Псалом 130, "Из глубины бездны", "Похоронная музыка для солдата" (1916), симфонические поэмы "Грустный вечер", "Утро весны" (1918) и Старая буддийская молитва (1917). Исполняют Марсьял Дефонтен, Венсан Ле Тесье, Соня де Бофор, Симфонический хор Намюра, Оркестр Люксембургской Филармонии, дирижёр - Марк Стрингер.
[teatrix.ru].t21503.torrent 
Торрент: Зарегистрирован [ 2016-03-20 12:27 ] · EDBBB3D0F214C0435554A36E23480849E5C83F08

Скачать .torrent

Скачать

11 KB

Статус: проверено
Скачан: 0 раз
Размер: 263 MB
terms.php



Быстрый ответ

Имя:

      
Для отправки сообщений необходимо включить JavaScript
Показать сообщения:    

Текущее время: 07-Дек 11:40

Часовой пояс: UTC + 3


Вы можете начинать темы
Вы можете отвечать на сообщения
Вы не можете редактировать свои сообщения
Вы не можете удалять свои сообщения
Вы не можете голосовать в опросах
Вы не можете прикреплять файлы к сообщениям
Вы можете скачивать файлы