(Classical) Everybody's Tune - Music from the British Isles & Flanders, 17th Century - Les Witches - 3CD - 2014, FLAC (image+.cue) lossless


 

[Цитировать]

Everybody's Tune - Music from the British Isles & Flanders, 17th Century - Les Witches
Жанр: Classical
Страна-производитель диска: France
Год издания диска: 2014
Издатель (лейбл): Alpha
Номер по каталогу: Alpha 823
Дата записи: 2001, 2007, 2012
Аудиокодек: FLAC
Тип рипа: image+.cue
Битрейт аудио: lossless
Продолжительность: 216:13
Источник: собственный рип
Наличие сканов в содержимом раздачи: да
Треклист:

CD1: Nobody’s Jig

Nobody’s Jig
Mr Playford’s English Dancing Master
[1] Nobody’s Jig, Mr Lane’s Maggott...
[2] Stingo
[3] Virgin Queen, Bobbing Joe
[4] Daphne
[5] Paul's Steeple
[6] Prince Rupert March, Masco
[7] Sheperd's Holiday
[8] Confess his tune
[9] An Italian Rant
[10] Stanes Morris
[11] A Health to Betty
[12] A Mask no.6
[13] Drive the cold winter away, The Beggar Boy
[14] A Division on a ground
[15] Woodycock
[16] Wallom green
[17] Bravade, Argiers
[18] A piece without title
[19] Hey to the camp, Schottisch Tanz
[20] Rights of Man

CD2: Manuscrit Susanne van Soldt

Manuscrit Susanne van Soldt
Danses, chansons & psaumes des Flandres, 1599
[1] Brande Champanje
[2] Preludium
[3] XXXI (sans titre)
[4] Almande de La nonette
[5] De frans galliard
[6] Ghij Herder Israels Wylt Hooren, den 80 sallem
[7] Wt de diepte o Heere, 130 sallem
[8] Almande Brun Smeedelyn
[9] Als een Hert gejaecht, den 42 sallem
[10] Pavane dan Vers
[11] Heer ich wil V Wt's Herten gront, den 9 sallem
[12] Susanna Vung Jour
[13] Almande de symmerman
[14] Myn God Voet mij als myn Herder..., 23 sallem
[15] Allemande Loreyne
[16] Brabanschen ronden dans ofte Brand

CD3: Lord Gallaway’s Delight

Lord Gallaway’s Delight
An Excellent Collection of Dances and Gaelic Laments
[1] She Rose And Leit Me In
[2] The Ragg Set By a Gentlemen (Irish Rag)
[3] Ld Gallaways Lamentation
[4] Sr Ulick Burk
[5] Mary O'Neill
[6] On The Cold Ground
[7] Bellamira
[8] Molly Halfpenny (Molly O'hailpin)
[9] Limbrick's Lamentation
[10] I Loved Thee Once
[11] Siege Of Limerick
[12] Counsellor Mc Donoghs Lamentation
[13] Jennys Whim, Role The Rumple Sawny
[14] Lads Of Leight
[15] Johney Cock Thy Beaver: A Scotch Tune to a Ground
[16] Kings Hornpipe, Newcastle
[17] Miss Hamilton
[18] Da Mihi Manum (Tabair Dom Do Lamh)
Исполнители:
Les Witches

Лог создания рипа: CD1

Exact Audio Copy V1.0 beta 3 from 29. August 2011
EAC extraction logfile from 30. November 2014, 1:27
Les Witches / Nobody's Jig
Used drive : HL-DT-STDVDRAM GU70N Adapter: 0 ID: 0
Read mode : Secure
Utilize accurate stream : Yes
Defeat audio cache : Yes
Make use of C2 pointers : No
Read offset correction : 48
Overread into Lead-In and Lead-Out : No
Fill up missing offset samples with silence : Yes
Delete leading and trailing silent blocks : No
Null samples used in CRC calculations : Yes
Used interface : Native Win32 interface for Win NT & 2000
Used output format : User Defined Encoder
Selected bitrate : 128 kBit/s
Quality : High
Add ID3 tag : No
Command line compressor : C:\Program Files (x86)\Exact Audio Copy\Flac\flac.exe
Additional command line options : -V -8 -T "Date=%year%" -T "Genre=%genre%" %source%
TOC of the extracted CD
Track | Start | Length | Start sector | End sector
---------------------------------------------------------
1 | 0:00.00 | 5:48.32 | 0 | 26131
2 | 5:48.32 | 2:56.49 | 26132 | 39380
3 | 8:45.06 | 3:53.74 | 39381 | 56929
4 | 12:39.05 | 4:54.36 | 56930 | 79015
5 | 17:33.41 | 3:12.69 | 79016 | 93484
6 | 20:46.35 | 3:11.25 | 93485 | 107834
7 | 23:57.60 | 2:02.11 | 107835 | 116995
8 | 25:59.71 | 1:20.40 | 116996 | 123035
9 | 27:20.36 | 2:17.68 | 123036 | 133378
10 | 29:38.29 | 1:07.72 | 133379 | 138475
11 | 30:46.26 | 2:32.18 | 138476 | 149893
12 | 33:18.44 | 4:34.12 | 149894 | 170455
13 | 37:52.56 | 5:37.64 | 170456 | 195794
14 | 43:30.45 | 6:14.44 | 195795 | 223888
15 | 49:45.14 | 5:30.51 | 223889 | 248689
16 | 55:15.65 | 2:10.54 | 248690 | 258493
17 | 57:26.44 | 3:51.04 | 258494 | 275822
18 | 61:17.48 | 3:32.15 | 275823 | 291737
19 | 64:49.63 | 3:42.17 | 291738 | 308404
20 | 68:32.05 | 3:36.19 | 308405 | 324623
Range status and errors
Selected range
Filename C:\temp\Alpha 823 - Everybody's Tune (Les Witches)\CD1 - Nobody's Jig\Nobody's Jig.wav
Peak level 98.0 %
Extraction speed 2.3 X
Range quality 99.9 %
Test CRC DC8AC11E
Copy CRC DC8AC11E
Copy OK
No errors occurred
AccurateRip summary
Track 1 cannot be verified as accurate (confidence 5) [A0FFDE56], AccurateRip returned [C149F69B] (AR v2)
Track 2 cannot be verified as accurate (confidence 4) [3D1D08C6], AccurateRip returned [A2A4F6F3] (AR v2)
Track 3 cannot be verified as accurate (confidence 5) [B82E8F0C], AccurateRip returned [28B40A77] (AR v2)
Track 4 cannot be verified as accurate (confidence 5) [EB860E66], AccurateRip returned [FFFFC783] (AR v2)
Track 5 cannot be verified as accurate (confidence 5) [EC4B3F37], AccurateRip returned [026E1FFD] (AR v2)
Track 6 cannot be verified as accurate (confidence 5) [15335631], AccurateRip returned [F290D7C3] (AR v2)
Track 7 cannot be verified as accurate (confidence 5) [D04D10A1], AccurateRip returned [0C01E7EF] (AR v2)
Track 8 cannot be verified as accurate (confidence 5) [7DBF781E], AccurateRip returned [705A5F66] (AR v2)
Track 9 cannot be verified as accurate (confidence 5) [7D0BC03F], AccurateRip returned [C3D4BA30] (AR v2)
Track 10 cannot be verified as accurate (confidence 5) [ADCE9047], AccurateRip returned [49B72EC9] (AR v2)
Track 11 cannot be verified as accurate (confidence 4) [E7801175], AccurateRip returned [EE55D391] (AR v2)
Track 12 cannot be verified as accurate (confidence 4) [F6938323], AccurateRip returned [E9FB5DB2] (AR v2)
Track 13 cannot be verified as accurate (confidence 5) [80521275], AccurateRip returned [5FC5D4B0] (AR v2)
Track 14 cannot be verified as accurate (confidence 5) [C4E8A277], AccurateRip returned [D106E043] (AR v2)
Track 15 cannot be verified as accurate (confidence 5) [2E267855], AccurateRip returned [207FA594] (AR v2)
Track 16 cannot be verified as accurate (confidence 5) [47B937F3], AccurateRip returned [DC9076DF] (AR v2)
Track 17 cannot be verified as accurate (confidence 5) [F7BCA266], AccurateRip returned [CAFBE70E] (AR v2)
Track 18 cannot be verified as accurate (confidence 5) [2A9DC289], AccurateRip returned [0E28F129] (AR v2)
Track 19 cannot be verified as accurate (confidence 5) [3BA1352F], AccurateRip returned [22CC6B26] (AR v2)
Track 20 cannot be verified as accurate (confidence 5) [BDD1B0A5], AccurateRip returned [6600E13C] (AR v2)
No tracks could be verified as accurate
You may have a different pressing from the one(s) in the database
End of status report
==== Log checksum D48E508E1F5214CDFD7EBCF7CA698FCBE02A426CF47B1BB14E4183F92EA10221 ====

Лог создания рипа: CD2

Exact Audio Copy V1.0 beta 3 from 29. August 2011
EAC extraction logfile from 30. November 2014, 11:01
Les Witches / Manuscrit Susanne van Soldt
Used drive : HL-DT-STDVDRAM GU70N Adapter: 0 ID: 0
Read mode : Secure
Utilize accurate stream : Yes
Defeat audio cache : Yes
Make use of C2 pointers : No
Read offset correction : 48
Overread into Lead-In and Lead-Out : No
Fill up missing offset samples with silence : Yes
Delete leading and trailing silent blocks : No
Null samples used in CRC calculations : Yes
Used interface : Native Win32 interface for Win NT & 2000
Used output format : User Defined Encoder
Selected bitrate : 128 kBit/s
Quality : High
Add ID3 tag : No
Command line compressor : C:\Program Files (x86)\Exact Audio Copy\Flac\flac.exe
Additional command line options : -V -8 -T "Date=%year%" -T "Genre=%genre%" %source%
TOC of the extracted CD
Track | Start | Length | Start sector | End sector
---------------------------------------------------------
1 | 0:00.00 | 3:43.64 | 0 | 16788
2 | 3:43.64 | 0:38.61 | 16789 | 19699
3 | 4:22.50 | 5:22.35 | 19700 | 43884
4 | 9:45.10 | 1:47.21 | 43885 | 51930
5 | 11:32.31 | 3:38.36 | 51931 | 68316
6 | 15:10.67 | 6:28.25 | 68317 | 97441
7 | 21:39.17 | 3:14.03 | 97442 | 111994
8 | 24:53.20 | 3:27.51 | 111995 | 127570
9 | 28:20.71 | 5:13.25 | 127571 | 151070
10 | 33:34.21 | 4:46.20 | 151071 | 172540
11 | 38:20.41 | 5:17.17 | 172541 | 196332
12 | 43:37.58 | 3:28.50 | 196333 | 211982
13 | 47:06.33 | 4:55.63 | 211983 | 234170
14 | 52:02.21 | 5:47.50 | 234171 | 260245
15 | 57:49.71 | 1:29.22 | 260246 | 266942
16 | 59:19.18 | 6:48.72 | 266943 | 297614
Range status and errors
Selected range
Filename C:\temp\Alpha 823 - Everybody's Tune (Les Witches)\CD2 - Manuscrit Susanne van Soldt\Manuscrit Susanne van Soldt.wav
Peak level 100.0 %
Extraction speed 2.2 X
Range quality 100.0 %
Test CRC 12556AB6
Copy CRC 12556AB6
Copy OK
No errors occurred
AccurateRip summary
Track 1 cannot be verified as accurate (confidence 9) [154842E0], AccurateRip returned [B46711F0] (AR v2)
Track 2 cannot be verified as accurate (confidence 9) [0C49A1B7], AccurateRip returned [B7FCD9B9] (AR v2)
Track 3 cannot be verified as accurate (confidence 9) [F71B0711], AccurateRip returned [BB002DD6] (AR v2)
Track 4 cannot be verified as accurate (confidence 9) [26617413], AccurateRip returned [3939126A] (AR v2)
Track 5 cannot be verified as accurate (confidence 9) [868E0C60], AccurateRip returned [DBE02530] (AR v2)
Track 6 cannot be verified as accurate (confidence 9) [77815CE5], AccurateRip returned [1468B001] (AR v2)
Track 7 cannot be verified as accurate (confidence 9) [0DBA69DC], AccurateRip returned [13ED1CC7] (AR v2)
Track 8 cannot be verified as accurate (confidence 9) [2F87A404], AccurateRip returned [0439BE3F] (AR v2)
Track 9 cannot be verified as accurate (confidence 9) [7BCBE219], AccurateRip returned [706F0E34] (AR v2)
Track 10 cannot be verified as accurate (confidence 9) [D424627F], AccurateRip returned [F5F3C4AC] (AR v2)
Track 11 cannot be verified as accurate (confidence 9) [65CC479E], AccurateRip returned [68FC34AF] (AR v2)
Track 12 cannot be verified as accurate (confidence 9) [272DAF4C], AccurateRip returned [E9FF5C19] (AR v2)
Track 13 cannot be verified as accurate (confidence 9) [61E3717B], AccurateRip returned [4B7BF113] (AR v2)
Track 14 cannot be verified as accurate (confidence 9) [20C02D82], AccurateRip returned [73032363] (AR v2)
Track 15 cannot be verified as accurate (confidence 9) [57C64BDD], AccurateRip returned [C4C4256D] (AR v2)
Track 16 cannot be verified as accurate (confidence 9) [FC8A211A], AccurateRip returned [429ABEE5] (AR v2)
No tracks could be verified as accurate
You may have a different pressing from the one(s) in the database
End of status report
==== Log checksum AD2DE5B36BC391049C85CC7E8DAA5403E87510D1E4C7C50D14DCA2A24C1F43A5 ====

Лог создания рипа: CD3

Exact Audio Copy V1.0 beta 3 from 29. August 2011
EAC extraction logfile from 30. November 2014, 12:34
Les Witches / Lord Gallaway's Delight
Used drive : HL-DT-STDVDRAM GU70N Adapter: 0 ID: 0
Read mode : Secure
Utilize accurate stream : Yes
Defeat audio cache : Yes
Make use of C2 pointers : No
Read offset correction : 48
Overread into Lead-In and Lead-Out : No
Fill up missing offset samples with silence : Yes
Delete leading and trailing silent blocks : No
Null samples used in CRC calculations : Yes
Used interface : Native Win32 interface for Win NT & 2000
Used output format : User Defined Encoder
Selected bitrate : 128 kBit/s
Quality : High
Add ID3 tag : No
Command line compressor : C:\Program Files (x86)\Exact Audio Copy\Flac\flac.exe
Additional command line options : -V -8 -T "Date=%year%" -T "Genre=%genre%" %source%
TOC of the extracted CD
Track | Start | Length | Start sector | End sector
---------------------------------------------------------
1 | 0:00.00 | 5:21.72 | 0 | 24146
2 | 5:21.72 | 3:55.36 | 24147 | 41807
3 | 9:17.33 | 6:06.58 | 41808 | 69315
4 | 15:24.16 | 4:32.22 | 69316 | 89737
5 | 19:56.38 | 3:43.01 | 89738 | 106463
6 | 23:39.39 | 3:08.50 | 106464 | 120613
7 | 26:48.14 | 3:57.32 | 120614 | 138420
8 | 30:45.46 | 3:45.27 | 138421 | 155322
9 | 34:30.73 | 5:57.35 | 155323 | 182132
10 | 40:28.33 | 5:23.02 | 182133 | 206359
11 | 45:51.35 | 3:17.70 | 206360 | 221204
12 | 49:09.30 | 8:11.14 | 221205 | 258043
13 | 57:20.44 | 2:25.19 | 258044 | 268937
14 | 59:45.63 | 2:58.60 | 268938 | 282347
15 | 62:44.48 | 3:54.43 | 282348 | 299940
16 | 66:39.16 | 2:57.53 | 299941 | 313268
17 | 69:36.69 | 4:15.13 | 313269 | 332406
18 | 73:52.07 | 4:05.69 | 332407 | 350850
Range status and errors
Selected range
Filename C:\temp\Alpha 823 - Everybody's Tune (Les Witches)\CD3 - Lord Gallaway's Delight\Lord Gallaway's Delight.wav
Peak level 97.5 %
Extraction speed 2.3 X
Range quality 100.0 %
Test CRC F44E5ACA
Copy CRC F44E5ACA
Copy OK
No errors occurred
AccurateRip summary
Track 1 accurately ripped (confidence 4) [E52141EC] (AR v2)
Track 2 accurately ripped (confidence 4) [54922DF3] (AR v2)
Track 3 accurately ripped (confidence 4) [6214EDAE] (AR v2)
Track 4 accurately ripped (confidence 4) [EA2C127B] (AR v2)
Track 5 accurately ripped (confidence 4) [EE68B628] (AR v2)
Track 6 accurately ripped (confidence 4) [5F56D61B] (AR v2)
Track 7 accurately ripped (confidence 4) [BFAC9864] (AR v2)
Track 8 accurately ripped (confidence 4) [AA6024CE] (AR v2)
Track 9 accurately ripped (confidence 4) [073FA29B] (AR v2)
Track 10 accurately ripped (confidence 4) [A0A03B5A] (AR v2)
Track 11 accurately ripped (confidence 4) [E1F4580A] (AR v2)
Track 12 accurately ripped (confidence 4) [299BC6D3] (AR v2)
Track 13 accurately ripped (confidence 4) [F0A67C04] (AR v2)
Track 14 accurately ripped (confidence 4) [BDD11312] (AR v2)
Track 15 accurately ripped (confidence 4) [DD77ED7F] (AR v2)
Track 16 accurately ripped (confidence 4) [2DE75514] (AR v2)
Track 17 accurately ripped (confidence 4) [E1DDD92E] (AR v2)
Track 18 accurately ripped (confidence 4) [4F766433] (AR v2)
All tracks accurately ripped
End of status report
==== Log checksum 46A3772823B01B44E5E496E66FD68C80855F8F0265726CCE39838C2A5364A051 ====



Показать сообщения:    

Текущее время: 11-Дек 11:06

Часовой пояс: UTC + 3


Вы не можете начинать темы
Вы не можете отвечать на сообщения
Вы не можете редактировать свои сообщения
Вы не можете удалять свои сообщения
Вы не можете голосовать в опросах
Вы не можете прикреплять файлы к сообщениям
Вы не можете скачивать файлы