Свидетель века - "19 ноября 1969 года" (Алексей Шлянин) [2000, Документальный фильм, DVB]


Статистика раздачи [Обновить пиров]
Размер:  330 MB   |    Зарегистрирован:  8 месяцев 20 дней   |    Скачан:  0 раз

Полного источника не было: Никогда

 
   
 
 
 

[Цитировать]

Свидетель века -“19 ноября 1969 года”
Дата/Год выпуска: 2000
Страна: Россия
Жанр: Документальный фильм
Продолжительность: 00:13:44
Перевод: Не требуется
Русские субтитры: нет
Режиссер: Алексей Шлянин
Телеканал: Ретро
Описание: 19 ноября 1969 года великий Пеле забил свой тысячный гол. О событиях тех дней, а также историю личного знакомства с Пеле вспоминает Игорь Фесуненко, долгое время проработавший корреспондентом Московского радио в Бразилии.
Сэмпл: https://www.sendspace.com/file/p0kfzo
качество: DVB
формат: MPG
Видео: MPEG2, 720x576 (4:3), 3098 Кбит/сек, 25,000 кадров/сек ,(0.299 bit/pixel)
Аудио: MP2, 192 Кбит/сек, 48,0 КГц, 2 канала

MediaInfo

Общее
Полное имя : 19 ноября 1969 года.mpg
Формат : MPEG-PS
Размер файла : 330 Мбайт
Продолжительность : 13 м.
Режим общего битрейта : Переменный
Общий поток : 3357 Кбит/сек
Видео
Идентификатор : 224 (0xE0)
Формат : MPEG Video
Версия формата : Version 2
Профиль формата : Main@Main
Параметр BVOP формата : Да
Параметр матрицы формата : Выборочная
Параметр GOP формата : M=3, N=12
Структура изображения : Frame
Продолжительность : 13 м.
Вид битрейта : Переменный
Битрейт : 3098 Кбит/сек
Максимальный битрейт : 10000 Кбит/сек
Ширина : 720 пикселей
Высота : 576 пикселей
Соотношение сторон : 4:3
Частота кадров : 25,000 кадров/сек
Стандарт вещания : PAL
Цветовое пространство : YUV
Субдискретизация насыщенности : 4:2:0
Битовая глубина : 8 бит
Тип развёртки : Чересстрочная
Порядок развёртки : Верхнее поле первое
Метод сжатия : С потерями
Бит/(Пиксели*Кадры) : 0.299
Временной код первого кадра : 00:00:00:00
Оригинал временного кода : Group of pictures header
GOP, открыто/закрыто : Открыто
GOP, открыто/закрыто на первом кадре : Закрыто
Размер потока : 304 Мбайт (92%)
Аудио
Идентификатор : 192 (0xC0)
Формат : MPEG Audio
Версия формата : Version 1
Профиль формата : Layer 2
Продолжительность : 13 м.
Вид битрейта : Постоянный
Битрейт : 192 Кбит/сек
Каналы : 2 канала
Частота : 48,0 КГц
Метод сжатия : С потерями
Задержка видео : 22 мс.
Размер потока : 18,9 Мбайт (6%)

Скриншоты

Запись потока *.ts произведена тюнером цифрового телевидения. В связи с тем, что не все плееры воспроизводят поток *.ts (MPEG-TS) , в данном видеофайле мной был сделан ремукс потока *.ts (MPEG-TS) в *.mpg (MPEG-PS) программой VideoReDo.
[teatrix.ru].t21508.torrent 
Торрент: Зарегистрирован [ 2016-03-20 12:27 ] · 57B0D71EC6144C2D9F3A965FFB0C340FD3375B95

Скачать .torrent

Скачать

13 KB

Статус: проверено
Скачан: 0 раз
Размер: 330 MB
terms.php



Быстрый ответ

Имя:

      
Для отправки сообщений необходимо включить JavaScript
Показать сообщения:    

Текущее время: 10-Дек 10:00

Часовой пояс: UTC + 3


Вы можете начинать темы
Вы можете отвечать на сообщения
Вы не можете редактировать свои сообщения
Вы не можете удалять свои сообщения
Вы не можете голосовать в опросах
Вы не можете прикреплять файлы к сообщениям
Вы можете скачивать файлы