(Sacred, Masses) Johann Sebastian Bach - Mass In F Major & Mass In B Minor {Missa H-moll} (Bavarian Radio Symphony Orchestra & Chorus, Munich Pro Arte Orchestra, Giebel, Prey, Marshall, Pears, Jochum, Redel) - 1993, FLAC (image+.cue) lossless


Статистика раздачи [Обновить пиров]
Размер:  745 MB   |    Зарегистрирован:  8 месяцев 22 дня   |    Скачан:  0 раз

Полного источника не было: Никогда

 
   
 
 
 

[Цитировать]

Johann Sebastian Bach - Mass In F Major & Mass In B Minor Жанр: Sacred
Страна-производитель диска: Germany
Год издания диска: 1993
Издатель (лейбл): Philips
Номер по каталогу: 438 739-2
Дата записи: 1957 (Mass B minor), 1965 (Mass F major)
Аудиокодек: FLAC
Тип рипа: image+.cue
Битрейт аудио: lossless
Продолжительность: 2:33:05
Источник: собственный рип
Наличие сканов в содержимом раздачи: да
Исполнители:
Missa brevis in F major:
Agnes Giebel - soprano
Hermann Prey - baritone
Gisela Litz - mezzo soprano
Lausanne Pro Arte Chorus, Munich Pro Arte Orchestra
Kurt Redel
- conductor
Mass in B minor:
Lois Marshall - soprano
Hertha Töpper - mezzo soprano
Kim Borg - bass
Peter Pears - tenor
Bavarian Radio Symphony Orchestra, Bavarian Radio Chorus
Eugen Jochum
- conductor

Треклист

CD 1
Missa brevis in F major, BWV 233
01. Kyrie 04:12
02.Gloria in excelsis 06:37
03.Domine Deus 03:53
04.Qui tollis peccata mundi 05:16
05.Quoniam tu solus sanctus 04:40
06.Cum Sancto Spiritu 02:57
Mass in B minor, BWV 232
07. Kyrie eleison 12:48
08.Christe eleison 05:57
09.Kyrie eleison 03:59
10.Gloria in excelsis Deo 02:10
11.Et in terra pax 04:44
12.Laudamus te 05:14
13.Gratias agimus tibi 03:04
14.Domine Deus 05:55
15.Qui tollis peccata mundi 04:17
CD 2
Mass in B minor, BWV 232 (cont.)
01.Qui sedes ad dexteram Patris 05:09
02.Quoniam tu solis sanctus 05:03
03.Cum Sancto Spiritu 04:17
04.Credo in unum Deum 02:16
05.Patrem omnipotentem 02:05
06.Et in unum Dominum 05:11
07.Et incarnatus est 04:29
08.Crucifixus 04:46
09.Et resurrexit 04:31
10.Et in Spiritum Sanctum 06:21
11.Confiteor 04:31
12.Et exspecto resurrectionem 02:18
13.Sanctus 05:51
14.Osanna in excelsis 03:08
15.Benedictus 04:50
16.Osanna in excelsis 03:11
17.Agnus Dei 05:55
18.Dona nobis pacem 03:13

Лог создания рипа

Лог создания рипа CD1

Exact Audio Copy V1.0 beta 2 from 29. April 2011
EAC extraction logfile from 7. February 2015, 20:00
Eugen Jochum / Mass in B Minor - Mass in F (CD 1)
Used drive : _NEC DVD_RW ND-3551A Adapter: 0 ID: 0
Read mode : Secure
Utilize accurate stream : Yes
Defeat audio cache : Yes
Make use of C2 pointers : No
Read offset correction : 48
Overread into Lead-In and Lead-Out : No
Fill up missing offset samples with silence : Yes
Delete leading and trailing silent blocks : No
Null samples used in CRC calculations : Yes
Used interface : Native Win32 interface for Win NT & 2000
Used output format : User Defined Encoder
Selected bitrate : 128 kBit/s
Quality : High
Add ID3 tag : No
Command line compressor : D:\Program Files\Exact Audio Copy\Flac\flac.exe
Additional command line options : -V -8 -T "Date=%year%" -T "Genre=%genre%" %source%
TOC of the extracted CD
Track | Start | Length | Start sector | End sector
---------------------------------------------------------
1 | 0:00.33 | 4:12.30 | 33 | 18962
2 | 4:12.63 | 6:37.17 | 18963 | 48754
3 | 10:50.05 | 3:53.08 | 48755 | 66237
4 | 14:43.13 | 5:16.57 | 66238 | 89994
5 | 19:59.70 | 4:40.60 | 89995 | 111054
6 | 24:40.55 | 2:57.45 | 111055 | 124374
7 | 27:38.25 | 12:48.53 | 124375 | 182027
8 | 40:27.03 | 5:57.50 | 182028 | 208852
9 | 46:24.53 | 3:59.32 | 208853 | 226809
10 | 50:24.10 | 2:10.05 | 226810 | 236564
11 | 52:34.15 | 4:44.45 | 236565 | 257909
12 | 57:18.60 | 5:14.68 | 257910 | 281527
13 | 62:33.53 | 3:04.65 | 281528 | 295392
14 | 65:38.43 | 5:55.22 | 295393 | 322039
15 | 71:33.65 | 4:17.43 | 322040 | 341357
Range status and errors
Selected range
Filename C:\RIP\Bach - Masses (CD 1).wav
Peak level 100.0 %
Extraction speed 3.1 X
Range quality 100.0 %
Test CRC DD47E8BC
Copy CRC DD47E8BC
Copy OK
No errors occurred
AccurateRip summary
Track 1 accurately ripped (confidence 10) [D0A91C0A] (AR v2)
Track 2 accurately ripped (confidence 10) [C4B18AD5] (AR v2)
Track 3 accurately ripped (confidence 10) [147BC06E] (AR v2)
Track 4 accurately ripped (confidence 10) [E2862C87] (AR v2)
Track 5 accurately ripped (confidence 10) [2AF754A5] (AR v2)
Track 6 accurately ripped (confidence 10) [D6449CFE] (AR v2)
Track 7 accurately ripped (confidence 10) [BC0634A7] (AR v2)
Track 8 accurately ripped (confidence 10) [11C8F191] (AR v2)
Track 9 accurately ripped (confidence 9) [791CE577] (AR v2)
Track 10 accurately ripped (confidence 9) [363AFC0A] (AR v2)
Track 11 accurately ripped (confidence 10) [FB39D2D9] (AR v2)
Track 12 accurately ripped (confidence 10) [1A07C67A] (AR v2)
Track 13 accurately ripped (confidence 10) [47558DB8] (AR v2)
Track 14 accurately ripped (confidence 10) [E624DDC0] (AR v2)
Track 15 accurately ripped (confidence 10) [8B9CCC21] (AR v2)
All tracks accurately ripped
End of status report
==== Log checksum 8F28013595D5BA5F18B866FF45CC208536A26C564927DCADC8DC19BBD1944D04 ====

Лог создания рипа CD2

Exact Audio Copy V1.0 beta 2 from 29. April 2011
EAC extraction logfile from 7. February 2015, 23:38
Eugen Jochum / Mass in B Minor - Mass in F (CD 2)
Used drive : _NEC DVD_RW ND-3551A Adapter: 0 ID: 0
Read mode : Secure
Utilize accurate stream : Yes
Defeat audio cache : Yes
Make use of C2 pointers : No
Read offset correction : 48
Overread into Lead-In and Lead-Out : No
Fill up missing offset samples with silence : Yes
Delete leading and trailing silent blocks : No
Null samples used in CRC calculations : Yes
Used interface : Native Win32 interface for Win NT & 2000
Used output format : User Defined Encoder
Selected bitrate : 128 kBit/s
Quality : High
Add ID3 tag : No
Command line compressor : D:\Program Files\Exact Audio Copy\Flac\flac.exe
Additional command line options : -V -8 -T "Date=%year%" -T "Genre=%genre%" %source%
TOC of the extracted CD
Track | Start | Length | Start sector | End sector
---------------------------------------------------------
1 | 0:00.33 | 5:09.20 | 33 | 23227
2 | 5:09.53 | 5:03.35 | 23228 | 45987
3 | 10:13.13 | 4:17.60 | 45988 | 65322
4 | 14:30.73 | 2:16.72 | 65323 | 75594
5 | 16:47.70 | 2:05.03 | 75595 | 84972
6 | 18:52.73 | 5:11.32 | 84973 | 108329
7 | 24:04.30 | 4:29.18 | 108330 | 128522
8 | 28:33.48 | 4:46.67 | 128523 | 150039
9 | 33:20.40 | 4:31.48 | 150040 | 170412
10 | 37:52.13 | 6:21.25 | 170413 | 199012
11 | 44:13.38 | 4:31.67 | 199013 | 219404
12 | 48:45.30 | 2:18.63 | 219405 | 229817
13 | 51:04.18 | 5:51.67 | 229818 | 256209
14 | 56:56.10 | 3:08.23 | 256210 | 270332
15 | 60:04.33 | 4:50.30 | 270333 | 292112
16 | 64:54.63 | 3:11.30 | 292113 | 306467
17 | 68:06.18 | 5:55.22 | 306468 | 333114
18 | 74:01.40 | 3:13.68 | 333115 | 347657
Range status and errors
Selected range
Filename C:\RIP\Bach - Masses (CD 2).wav
Peak level 100.0 %
Extraction speed 2.7 X
Range quality 100.0 %
Test CRC 2253DBA6
Copy CRC 2253DBA6
Copy OK
No errors occurred
AccurateRip summary
Track 1 not present in database
Track 2 not present in database
Track 3 not present in database
Track 4 not present in database
Track 5 not present in database
Track 6 not present in database
Track 7 not present in database
Track 8 not present in database
Track 9 not present in database
Track 10 not present in database
Track 11 not present in database
Track 12 not present in database
Track 13 not present in database
Track 14 not present in database
Track 15 not present in database
Track 16 not present in database
Track 17 not present in database
Track 18 not present in database
None of the tracks are present in the AccurateRip database
End of status report
==== Log checksum AA143CF8B9B38A3B2903EE6F51D9401692FE19BD6AA777B386BF73150BA497D5 ====
---Johann Sebastian Bach - Mass In B Minor(Eugen Jochum, 1980)
[teatrix.ru].t21510.torrent 
Торрент: Зарегистрирован [ 2016-03-20 12:27 ] · 46D50474F949131F27E3CE7688E9FD2ED6DD64F4

Скачать .torrent

Скачать

16 KB

Статус: проверено
Скачан: 0 раз
Размер: 745 MB
terms.php



Быстрый ответ

Имя:

      
Для отправки сообщений необходимо включить JavaScript
Показать сообщения:    

Текущее время: 11-Дек 16:51

Часовой пояс: UTC + 3


Вы можете начинать темы
Вы можете отвечать на сообщения
Вы не можете редактировать свои сообщения
Вы не можете удалять свои сообщения
Вы не можете голосовать в опросах
Вы не можете прикреплять файлы к сообщениям
Вы можете скачивать файлы