Кумиры экрана. Любовь Соколова (Руслан Заварзин) [2000, Личности и кумиры, DVB]


Статистика раздачи [Обновить пиров]
Размер:  443 MB   |    Зарегистрирован:  8 месяцев 20 дней   |    Скачан:  0 раз

Полного источника не было: Никогда

 
   
 
 
 

[Цитировать]

Кумиры экрана. Любовь Соколова
Дата/Год выпуска: 2000
Страна: Россия
Жанр: Личности и кумиры
Продолжительность: 00:24:06
Перевод: Не требуется
Студия / издатель: ВТВ-сервис
Режиссер: Руслан Заварзин
Телеканал: Ретро
Описание:
Более полувека снималась в кино Любовь Соколова. Она навсегда породнилась с теми, чью жизнь правдиво показала на экране. Не со стороны изучала она окружающую действительность – жила в ней ежечасно, ежеминутно. Pодилась 31 июля 1921 года в городе Иваново-Вознесенске. Будучи студенткой Ленинградского педагогического института, поступила зимой 1940 года в киноактёрскую школу при студии «Ленфильм». Во время Отечественной войны работала на заводе слесарем по обработке деталей к двигателям самолётов. Работала на эвакопункте. Ухаживала за больными и ранеными.
Любовь Соколова окончила ВГИК (мастерская Б. Бибикова и О. Пыжовой) в 1946 году.
В 1951—1956 годах — актриса Драматического театра Группы советских войск в Германии (Потсдам), в 1946—1951 годах и с 1956 года — актриса Театра-студии киноактёра.
В кино Любовь Соколова дебютировала в 1948 году в роли простой деревенской женщины Варвары в фильме «Повесть о настоящем человеке». Дебют молодой актрисы не прошёл незамеченным. У неё появились многочисленные поклонники, одно за другим последовали новые предложения: «Тихий Дон», «Серёжа», «Далеко от Москвы», «Преступление и наказание», «Я шагаю по Москве», «Тридцать три», «Ирония судьбы…». Всего снялась в 389 фильмах. Многие называли ее и продолжают именовать после кончины «наша мама».
Доп. информация: "Кумиры экрана" - авторская передача Народной артистки СССР Клары Лучко, выступающей в роли ведущей.
Сэмпл: https://www.sendspace.com/file/up18oq
качество: DVB
формат: MPG
Видео: MPEG2, 720:576, (4:3) 2194 Кбит/сек, 25,000 кадров/сек, (0.212 bit/pixel)
Аудио: MP2, 192 Кбит/сек, 48,0 КГц, 2 канала

MediaInfo

Общее
Полное имя : Любовь Соколова.mpg
Формат : MPEG-PS
Размер файла : 443 Мбайт
Продолжительность : 25 м.
Режим общего битрейта : Переменный
Общий поток : 2434 Кбит/сек
Видео
Идентификатор : 224 (0xE0)
Формат : MPEG Video
Версия формата : Version 2
Профиль формата : Main@Main
Параметр BVOP формата : Да
Параметр матрицы формата : Выборочная
Параметр GOP формата : M=3, N=12
Структура изображения : Frame
Продолжительность : 25 м.
Вид битрейта : Переменный
Битрейт : 2194 Кбит/сек
Максимальный битрейт : 10000 Кбит/сек
Ширина : 720 пикселей
Высота : 576 пикселей
Соотношение сторон : 4:3
Частота кадров : 25,000 кадров/сек
Стандарт вещания : PAL
Цветовое пространство : YUV
Субдискретизация насыщенности : 4:2:0
Битовая глубина : 8 бит
Тип развёртки : Чересстрочная
Порядок развёртки : Верхнее поле первое
Метод сжатия : С потерями
Бит/(Пиксели*Кадры) : 0.212
Временной код первого кадра : 00:00:00:00
Оригинал временного кода : Group of pictures header
GOP, открыто/закрыто : Открыто
GOP, открыто/закрыто на первом кадре : Закрыто
Размер потока : 399 Мбайт (90%)
Аудио
Идентификатор : 192 (0xC0)
Формат : MPEG Audio
Версия формата : Version 1
Профиль формата : Layer 2
Продолжительность : 25 м.
Вид битрейта : Постоянный
Битрейт : 192 Кбит/сек
Каналы : 2 канала
Частота : 48,0 КГц
Метод сжатия : С потерями
Задержка видео : 10 мс.
Размер потока : 34,9 Мбайт (8%)

Скриншоты

Запись потока *.ts произведена тюнером цифрового телевидения. В связи с тем, что не все плееры воспроизводят поток *.ts (MPEG-TS) , в данном видеофайле мной был сделан ремукс потока *.ts (MPEG-TS) в *.mpg (MPEG-PS) программой VideoReDo.
[teatrix.ru].t21511.torrent 
Торрент: Зарегистрирован [ 2016-03-20 12:27 ] · CD203B313C54F59AF7DFAFA55AA0E186401C9130

Скачать .torrent

Скачать

18 KB

Статус: проверено
Скачан: 0 раз
Размер: 443 MB
terms.php



Быстрый ответ

Имя:

      
Для отправки сообщений необходимо включить JavaScript
Показать сообщения:    

Текущее время: 10-Дек 08:04

Часовой пояс: UTC + 3


Вы можете начинать темы
Вы можете отвечать на сообщения
Вы не можете редактировать свои сообщения
Вы не можете удалять свои сообщения
Вы не можете голосовать в опросах
Вы не можете прикреплять файлы к сообщениям
Вы можете скачивать файлы