Кумиры экрана. Сергей Бондарчук (Руслан Заварзин) [2000, Личности и кумиры, DVB]


Статистика раздачи [Обновить пиров]
Размер:  498 MB   |    Зарегистрирован:  8 месяцев 18 дней   |    Скачан:  0 раз

Полного источника не было: Никогда

 
   
 
 
 

[Цитировать]

Кумиры экрана. Сергей Бондарчук
Дата/Год выпуска: 2000
Страна: Россия
Жанр: Личности и кумиры
Продолжительность: 00:24:06
Перевод: Не требуется
Студия / издатель: ВТВ-сервис
Режиссер: Руслан Заварзин
Телеканал: Ретро
Описание:
Родился 25 сентября 1920 года в Белозёрске (ныне Херсонская область, Украина).
Актёр, кинорежиссёр, сценарист, педагог.
Заслуженный артист РСФСР (27.08.1951).
Народный артист СССР (17.05.1952).
Герой Социалистического Труда (24.09.1980).
Заслуженный деятель культуры Чехословакии.
Окончил среднюю школу № 4 в Таганроге в 1938 году. Учась во второй школе города Ейска посещал театральный кружок. Актёрскую карьеру начал в Таганрогском драматическом театре (1937). Учился в Ростовском театральном училище (1938-1941).
В 1941-1942 годах служил актёром в Театре Красной армии в городе Грозном.
Участник Великой Отечественной войны.
Окончил актёрский факультет ВГИКа (1948, мастерская С.А. Герасимова). Дипломная работа — роль Валько в фильме «Молодая гвардия».
С 1959 года — режиссёр киностудии «Мосфильм». Режиссёрский дебют - фильм «Судьба человека» (1959).
С 1971 года — руководитель актёрской мастерской ВГИКа, с 1974 года — профессор.
В 1971 году избран секретарём правления СК СССР. С 1972 по 1994 гг. — художественный руководитель студии «Время». В 1986 году в ходе исторического перестроечного V съезда кинематографистов СССР, Сергей Бондарчук, наряду с другими признанными фигурами советского кинематографа С. И. Ростоцким и Л. А. Кулиджановым, был забаллотирован на выборах секретариата и покинул руководство Союза кинематографистов СССР.
Доп. информация: "Кумиры экрана" - авторская передача Народной артистки СССР Клары Лучко, выступающей в роли ведущей.
Сэмпл: https://www.sendspace.com/file/7n8k4t
качество: DVB
формат: MPG
Видео: MPEG2, 720:576, (4:3) 2420 Кбит/сек, 25,000 кадров/сек, (0.233 bit/pixel)
Аудио: MP2, 192 Кбит/сек, 48,0 КГц, 2 канала

MediaInfo

Общее
Полное имя : Сергей Бондарчук.mpg
Формат : MPEG-PS
Размер файла : 498 Мбайт
Продолжительность : 26 м.
Режим общего битрейта : Переменный
Общий поток : 2665 Кбит/сек
Видео
Идентификатор : 224 (0xE0)
Формат : MPEG Video
Версия формата : Version 2
Профиль формата : Main@Main
Параметр BVOP формата : Да
Параметр матрицы формата : Выборочная
Параметр GOP формата : M=3, N=12
Структура изображения : Frame
Продолжительность : 26 м.
Вид битрейта : Переменный
Битрейт : 2420 Кбит/сек
Максимальный битрейт : 10000 Кбит/сек
Ширина : 720 пикселей
Высота : 576 пикселей
Соотношение сторон : 4:3
Частота кадров : 25,000 кадров/сек
Стандарт вещания : PAL
Цветовое пространство : YUV
Субдискретизация насыщенности : 4:2:0
Битовая глубина : 8 бит
Тип развёртки : Чересстрочная
Порядок развёртки : Верхнее поле первое
Метод сжатия : С потерями
Бит/(Пиксели*Кадры) : 0.233
Временной код первого кадра : 00:00:00:00
Оригинал временного кода : Group of pictures header
GOP, открыто/закрыто : Открыто
GOP, открыто/закрыто на первом кадре : Закрыто
Размер потока : 452 Мбайт (91%)
Аудио
Идентификатор : 192 (0xC0)
Формат : MPEG Audio
Версия формата : Version 1
Профиль формата : Layer 2
Продолжительность : 26 м.
Вид битрейта : Постоянный
Битрейт : 192 Кбит/сек
Каналы : 2 канала
Частота : 48,0 КГц
Метод сжатия : С потерями
Задержка видео : 6 мс.
Размер потока : 35,9 Мбайт (7%)

Скриншоты

Запись потока *.ts произведена тюнером цифрового телевидения. В связи с тем, что не все плееры воспроизводят поток *.ts (MPEG-TS) , в данном видеофайле мной был сделан ремукс потока *.ts (MPEG-TS) в *.mpg (MPEG-PS) программой VideoReDo.
[teatrix.ru].t21512.torrent 
Торрент: Зарегистрирован [ 2016-03-20 12:27 ] · D52027C57199119CB33A8CE561B1DDCBA77F3DE6

Скачать .torrent

Скачать

20 KB

Статус: проверено
Скачан: 0 раз
Размер: 498 MB
terms.php



Быстрый ответ

Имя:

      
Для отправки сообщений необходимо включить JavaScript
Показать сообщения:    

Текущее время: 07-Дек 23:21

Часовой пояс: UTC + 3


Вы можете начинать темы
Вы можете отвечать на сообщения
Вы не можете редактировать свои сообщения
Вы не можете удалять свои сообщения
Вы не можете голосовать в опросах
Вы не можете прикреплять файлы к сообщениям
Вы можете скачивать файлы