Бенефис Савелия Крамарова (Евгений Гинзбург) [1974, СССР, музыкальный моноспектакль, DVB]


Статистика раздачи [Обновить пиров]
Размер:  1.01 GB   |    Зарегистрирован:  8 месяцев 15 дней   |    Скачан:  0 раз

Полного источника не было: Никогда

 
   
 
 
 

[Цитировать]

Бенефис Савелия Крамарова
Страна: СССР
Жанр: музыкальный моноспектакль
Год выпуска: 1974
Продолжительность: 0:42:43
Режиссёр: Евгений Гинзбург
В ролях:
Савелий Крамаров
В эпизодах:
Людмила Гурченко
Татьяна Шмыга
Михаил Державин
Валентин Никулин
Описание: Первый актерский «Бенефис» в серии проектов Евгения Гинзбурга, созданный после первой и последней государственной награды Савелия Крамарова — звания Заслуженного артиста РСФСР. Имя Савелия Крамарова стало легендой еще при жизни. Актер - соавтор сценария, убедительно требовавший фраз не длиннее, чем: «Мертвые с косами стоят, и тишина!». Но вдруг выяснилось, что официально такого актера... не существует. В конце 70-х он переехал жить в США, после чего «Бенефис» в числе многих работ с его участием был запрещен к показу. Долгое время программа считалась утерянной, говорили о невозможности ее реставрации.
Доп. информация:
Запись со спутника Eutelsat 36A/B, телеканал "Ноcтальгия".
Семпл: http://multi-up.com/1054577
Качество видео: DVB
Формат видео: MPEG-PS
Видео: MPEG-2, 720x576i, 25.000 fps, 3132 kbps
Аудио: Русский (MPEG Audio 2.0, 48 kHz, 192 kbps)

MediaInfo

Общее
Полное имя : E:\Бенефис Савелия Крамарова_1974_DVB.mpg
Формат : MPEG-PS
Размер файла : 1,01 Гбайт
Продолжительность : 42 м.
Режим общего битрейта : Переменный
Общий поток : 3392 Кбит/сек
Видео
Идентификатор : 224 (0xE0)
Формат : MPEG Video
Версия формата : Version 2
Профиль формата : Main@Main
Параметр BVOP формата : Да
Параметр матрицы формата : Выборочная
Параметр GOP формата : M=3, N=36
Format_Settings_PictureStructure : Frame
Продолжительность : 42 м.
Вид битрейта : Переменный
Битрейт : 3132 Кбит/сек
Максимальный битрейт : 15,0 Мбит/сек
Ширина : 720 пикселей
Высота : 576 пикселей
Соотношение сторон : 4:3
Частота кадров : 25,000 кадров/сек
Стандарт вещания : PAL
Цветовое пространство : YUV
Субдискретизация насыщенности : 4:2:0
Битовая глубина : 8 бит
Тип развёртки : Чересстрочная
Порядок развёртки : Верхнее поле первое
Метод сжатия : С потерями
Бит/(Пиксели*Кадры) : 0.302
Временной код первого кадра : 00:00:02:00
Оригинал временного кода : Group of pictures header
Размер потока : 957 Мбайт (92%)
Аудио
Идентификатор : 192 (0xC0)
Формат : MPEG Audio
Версия формата : Version 1
Профиль формата : Layer 2
Продолжительность : 42 м.
Вид битрейта : Постоянный
Битрейт : 192 Кбит/сек
Каналы : 2 канала
Частота : 48,0 КГц
Метод сжатия : С потерями
Задержка видео : -1 с. 416 мс.
Размер потока : 58,7 Мбайт (6%)

Скриншот с названием постановки

Скриншоты

[teatrix.ru].t21513.torrent 
Торрент: Зарегистрирован [ 2016-03-20 12:27 ] · E112100A39D245FDA4AAE05222ECB67600A4E5AB

Скачать .torrent

Скачать

11 KB

Статус: проверено
Скачан: 0 раз
Размер: 1.01 GB
terms.php



Быстрый ответ

Имя:

      
Для отправки сообщений необходимо включить JavaScript
Показать сообщения:    

Текущее время: 04-Дек 23:21

Часовой пояс: UTC + 3


Вы можете начинать темы
Вы можете отвечать на сообщения
Вы не можете редактировать свои сообщения
Вы не можете удалять свои сообщения
Вы не можете голосовать в опросах
Вы не можете прикреплять файлы к сообщениям
Вы можете скачивать файлы