Мальчик и мир / O Menino e o Mundo (Але Абреу / Ale Abreu) [2013, Бразилия, мультфильм, драма, социальный, семейный, WEBRip-AVC] + Original Por


 

[Цитировать]

Мальчик и мир / O Menino e o Mundo
Страна: Бразилия
Жанр: мультфильм, драма, социальный, семейный
Год выпуска: 2013
Продолжительность: 01:20:00
Перевод: Не требуется
Cубтитры: нет
Оригинальная аудиодорожка: португальский
Режиссер: Але Абреу / Ale Abreu
В ролях: Марко Аурелио Кампос, Винисиус Гарсия, Лу Хорта
Описание: Мультфильм повествует о мальчике по имени Кука, чья уютная жизнь рушится, когда его отец уезжает в город. Мальчик отправляется на поиски отца, движимый целью воссоединить свою семью.
Доп. информация: Найдено на просторах интернета.
Сэмпл: http://multi-up.com/1054610
Качество видео: WEBRip-AVC
Формат видео: MKV
Видео: AVC, 1896x1056, 16:9, 24fps, 4 095Kbps
Аудио: AC-3, 48.0 KHz, 384Kbps, 6 channels

MediaInfo

General
Уникальный идентификатор : 110363269899844626425319477281607144998 (0x5307314FF104996E0A2FA58528445626)
Формат : Matroska
Версия формата : Version 2
Размер файла : 2.46 GiB
Продолжительность : 1h 19mn
Общий поток : 4 418 Kbps
Программа кодирования : HandBrake rev5474
Библиотека кодирования : libmkv 0.6.5.1
Video
Идентификатор : 1
Формат : AVC
Формат/Информация : Advanced Video Codec
Профиль формата : Baseline@L4.1
Параметр CABAC формата : No
Параметр ReFrames формата : 4 frames
Идентификатор кодека : V_MPEG4/ISO/AVC
Продолжительность : 1h 19mn
Битрейт : 4 095 Kbps
Ширина : 1 896 pixels
Высота : 1 056 pixels
Соотношение сторон : 16:9
Режим частоты кадров : Constant
Частота кадров : 24.000 fps
Цветовое пространство : YUV
Субдискретизация насыщенности : 4:2:0
Битовая глубина : 8 bits
Тип развёртки : Progressive
Бит/(Пиксели*Кадры) : 0.085
Размер потока : 2.19 GiB (89%)
Библиотека кодирования : x264 core 142 r2389 956c8d8
Настройки программы : cabac=0 / ref=4 / deblock=0:0:0 / analyse=0:0x131 / me=umh / subme=7 / psy=1 / psy_rd=1,00:0,00 / mixed_ref=0 / me_range=16 / chroma_me=1 / trellis=0 / 8x8dct=0 / cqm=0 / deadzone=21,11 / fast_pskip=0 / chroma_qp_offset=-2 / threads=12 / lookahead_threads=2 / sliced_threads=0 / nr=0 / decimate=1 / interlaced=0 / bluray_compat=0 / constrained_intra=0 / bframes=0 / weightp=0 / keyint=240 / keyint_min=24 / scenecut=0 / intra_refresh=0 / rc_lookahead=50 / rc=abr / mbtree=0 / bitrate=4095 / ratetol=1,0 / qcomp=0,60 / qpmin=0 / qpmax=69 / qpstep=4 / vbv_maxrate=50000 / vbv_bufsize=62500 / nal_hrd=none / filler=0 / ip_ratio=1,40 / aq=0
Язык : English
Default : Yes
Forced : No
Цветовой диапазон : Limited
Основные цвета : BT.709
Характеристики трансфера : BT.709
Коэффициенты матрицы : BT.709
Audio
Идентификатор : 2
Формат : AC-3
Формат/Информация : Audio Coding 3
Расширение режима : CM (complete main)
Параметр Endianness формата : Big
Идентификатор кодека : A_AC3
Продолжительность : 1h 19mn
Вид битрейта : Constant
Битрейт : 384 Kbps
Каналы : 6 channels
Расположение каналов : Front: L C R, Side: L R, LFE
Частота : 48.0 KHz
Метод сжатия : Lossy
Размер потока : 219 MiB (9%)
Язык : Portuguese
Default : Yes
Forced : No
Menu
00:00:00.000 : Capítulo 01
00:09:30.000 : Capítulo 02
00:14:32.042 : Capítulo 03
00:20:19.000 : Capítulo 04
00:28:29.000 : Capítulo 05
00:39:07.000 : Capítulo 06
00:51:01.000 : Capítulo 07
01:03:30.000 : Capítulo 08
01:13:02.000 : Capítulo 09

Скриншоты












Показать сообщения:    

Текущее время: 03-Дек 18:43

Часовой пояс: UTC + 3


Вы не можете начинать темы
Вы не можете отвечать на сообщения
Вы не можете редактировать свои сообщения
Вы не можете удалять свои сообщения
Вы не можете голосовать в опросах
Вы не можете прикреплять файлы к сообщениям
Вы не можете скачивать файлы