(Classical, Chamber) Рахманинов/Rachmaninov, Элегическое трио № 1,2 для скрипки, виолончели и фортепиано, Trio élégiaque, for piano & strings, The Moscow Trio (Московское трио) - Russian Trios, Vol. 3: Rachmaninov, - 1993, FLAC (tracks+


 

[Цитировать]

The Moscow Trio - Russian Trios, Vol. 3: Rachmaninov
Жанр: Classical, Chamber
Страна-производитель диска: Germany
Год издания диска: 1993
Издатель (лейбл): Le Chant du Monde
Номер по каталогу: LDC 288 065
EAN: 3149025059086
Дата записи: 1992
Аудиокодек: FLAC
Тип рипа: tracks+.cue
Битрейт аудио: lossless
Продолжительность: 66:53
Источник: собственный рип
Наличие сканов в содержимом раздачи: да
Треклист:
Trio élégiaque, for piano & strings in D minor, Op. 9
01. 1. Moderato 21:57
02. 2. Quasi variazione 19:54
03. 3. Allegro risoluto 9:18
04. Trio élégiaque, for piano & strings in G minor, TN ii/34 15:44
Исполнители:
The Moscow Trio
Vladimir Ivanov (violin),
Mikhail Utkin (cello),
Alexander Bonduriansky (piano)
http://www.moscow-piano-trio.com/

Лог создания рипа

Exact Audio Copy V1.0 beta 6 from 9. April 2015
EAC extraction logfile from 11. June 2015, 18:56
The Moscow Trio / Russian Trios, Vol. 3: Rachmaninov
Used drive : Optiarc DVD RW AD-7200S Adapter: 1 ID: 0
Read mode : Secure
Utilize accurate stream : Yes
Defeat audio cache : Yes
Make use of C2 pointers : No
Read offset correction : 48
Overread into Lead-In and Lead-Out : No
Fill up missing offset samples with silence : Yes
Delete leading and trailing silent blocks : No
Null samples used in CRC calculations : Yes
Used interface : Native Win32 interface for Win NT & 2000
Gap handling : Appended to previous track
Used output format : User Defined Encoder
Selected bitrate : 1024 kBit/s
Quality : High
Add ID3 tag : No
Command line compressor : C:\program files\Exact Audio Copy\Flac\flac.exe
Additional command line options : -V -8 -T "Artist=%artist%" -T "Album=%albumtitle%" -T "Tracknumber=%Tracknr%" -T "Title=%title%" -T "Date=%year%" -T "Genre=%genre%" %source%
TOC of the extracted CD
Track | Start | Length | Start sector | End sector
---------------------------------------------------------
1 | 0:00.32 | 21:57.25 | 32 | 98831
2 | 21:57.57 | 19:54.65 | 98832 | 188446
3 | 41:52.47 | 9:18.33 | 188447 | 230329
4 | 51:11.05 | 15:44.55 | 230330 | 301184
Track 1
Filename D:\The Moscow Trio\(1993) Russian Trios, Vol. 3 - Rachmaninov\The Moscow Trio - Russian Trios, Vol. 3 - Rachmaninov - 01. Trio No.2 (Elegiaque) in D minor Op.9 - 1. Moderato.wav
Pre-gap length 0:00:02.32
Peak level 85.5 %
Extraction speed 3.3 X
Track quality 99.9 %
Test CRC 515F816D
Copy CRC 515F816D
Accurately ripped (confidence 2) [CB9980A5] (AR v2)
Copy OK
Track 2
Filename D:\The Moscow Trio\(1993) Russian Trios, Vol. 3 - Rachmaninov\The Moscow Trio - Russian Trios, Vol. 3 - Rachmaninov - 02. Trio No.2 (Elegiaque) in D minor Op.9 - 2. Quasi variazione.wav
Pre-gap length 0:00:06.05
Peak level 46.8 %
Extraction speed 4.3 X
Track quality 99.9 %
Test CRC AB0A51FA
Copy CRC AB0A51FA
Accurately ripped (confidence 2) [1F766D42] (AR v2)
Copy OK
Track 3
Filename D:\The Moscow Trio\(1993) Russian Trios, Vol. 3 - Rachmaninov\The Moscow Trio - Russian Trios, Vol. 3 - Rachmaninov - 03. Trio No.2 (Elegiaque) in D minor Op.9 - 3. Allegro risoluto.wav
Peak level 75.3 %
Extraction speed 4.9 X
Track quality 100.0 %
Test CRC BF2036D7
Copy CRC BF2036D7
Accurately ripped (confidence 2) [193108CC] (AR v2)
Copy OK
Track 4
Filename D:\The Moscow Trio\(1993) Russian Trios, Vol. 3 - Rachmaninov\The Moscow Trio - Russian Trios, Vol. 3 - Rachmaninov - 04. Trio No.1 in G minor.wav
Pre-gap length 0:00:11.03
Peak level 73.4 %
Extraction speed 5.5 X
Track quality 100.0 %
Test CRC D12DB0BD
Copy CRC D12DB0BD
Accurately ripped (confidence 2) [6CE433CF] (AR v2)
Copy OK
All tracks accurately ripped
No errors occurred
End of status report
==== Log checksum 1AA888521F63CB850F033AF61CE19C454F918EC90344C21E74EDDF9F9D948068 ====

Содержание индексной карты (.CUE)

REM GENRE Classical
REM DATE 1993
REM DISCID 290FAF04
REM COMMENT "ExactAudioCopy v1.0b6"
PERFORMER "The Moscow Trio"
TITLE "Russian Trios, Vol. 3: Rachmaninov"
FILE "The Moscow Trio\(1993) Russian Trios, Vol. 3 - Rachmaninov\The Moscow Trio - Russian Trios, Vol. 3 - Rachmaninov - 01. Trio No.2 (Elegiaque) in D minor Op.9 - 1. Moderato.wav" WAVE
TRACK 01 AUDIO
TITLE "Trio No.2 (Elegiaque) in D minor Op.9 - 1. Moderato"
PERFORMER "The Moscow Trio"
PREGAP 00:00:32
INDEX 01 00:00:00
TRACK 02 AUDIO
TITLE "Trio No.2 (Elegiaque) in D minor Op.9 - 2. Quasi variazione"
PERFORMER "The Moscow Trio"
INDEX 00 21:51:20
FILE "The Moscow Trio\(1993) Russian Trios, Vol. 3 - Rachmaninov\The Moscow Trio - Russian Trios, Vol. 3 - Rachmaninov - 02. Trio No.2 (Elegiaque) in D minor Op.9 - 2. Quasi variazione.wav" WAVE
INDEX 01 00:00:00
FILE "The Moscow Trio\(1993) Russian Trios, Vol. 3 - Rachmaninov\The Moscow Trio - Russian Trios, Vol. 3 - Rachmaninov - 03. Trio No.2 (Elegiaque) in D minor Op.9 - 3. Allegro risoluto.wav" WAVE
TRACK 03 AUDIO
TITLE "Trio No.2 (Elegiaque) in D minor Op.9 - 3. Allegro risoluto"
PERFORMER "The Moscow Trio"
INDEX 01 00:00:00
TRACK 04 AUDIO
TITLE "Trio No.1 in G minor"
PERFORMER "The Moscow Trio"
INDEX 00 09:07:30
FILE "The Moscow Trio\(1993) Russian Trios, Vol. 3 - Rachmaninov\The Moscow Trio - Russian Trios, Vol. 3 - Rachmaninov - 04. Trio No.1 in G minor.wav" WAVE
INDEX 01 00:00:00



Показать сообщения:    

Текущее время: 09-Дек 03:00

Часовой пояс: UTC + 3


Вы не можете начинать темы
Вы не можете отвечать на сообщения
Вы не можете редактировать свои сообщения
Вы не можете удалять свои сообщения
Вы не можете голосовать в опросах
Вы не можете прикреплять файлы к сообщениям
Вы не можете скачивать файлы