[TR24][OF] Joyce DiDonato - Drama Queens (Cesti, Giacomelli, Handel, Hasse, Haydn, Keiser, Monteverdi, Orlandini, Porta; Alan Curtis) - 2012 (Opera, Vocal)


Статистика раздачи [Обновить пиров]
Размер:  1.34 GB   |    Зарегистрирован:  8 месяцев 13 дней   |    Скачан:  0 раз

Полного источника не было: Никогда

 
   
 
 
 

[Цитировать]

Joyce DiDonato - Drama Queens
Формат записи/Источник записи: [TR24][OF]
Наличие водяных знаков: Нет
Год издания/переиздания диска: 2012
Жанр: Opera, Vocal
Издатель(лейбл): Erato, Warner Classical
Продолжительность: 01:17:18
Треклист:
1. Giuseppe Maria Orlandini - Berenice: "Da torbida procella"
2. Giovanni Porta - Ifigenia in Aulide: "Madre diletta, abbracciami"
3. George Frederick Handel - Alcina: "Ma quando tornerai"
4. Reinhard Keiser - Fredegunda: "Lasciami piangere"
5. Reinhard Keiser - Antonio e Cleopatra: "Morte, col fiero aspetto"
6. George Frederick Handel - Giulio Cesare in Egitto: "Piangero la sorte mia"
7. Antonio Cesti - Orontea: "Intorno all'idol mio"
8. George Frederick Handel - Alessandro: "Brilla nell'alma"
9. Reinhard Keiser - Octavia: "Geloso, sospetto''
10. Claudio Monteverdi - L'incoronazione di Poppea: "Disprezzata regina"
11. Geminiano Giacomelli - Merope: "Sposa, son disprezzata"
12. Giuseppe Maria Orlandini - Berenice: "Col versar, barbaro, il sangue"
13. Franz Joseph Haydn - Armida: "Vedi, se t'amo... Odio, furor, dispetto"
Исполнители:
Joyce DiDonato, mezzo-soprano,
Il Complesso Barocco, Ensemble,
Alan Curtis, Conductor.
Recorded on July 16, 2012 - July 22, 2012 at Villa San Fermo, Lonigo, Italy.
Контейнер: FLAC (*.flac)
Тип рипа: tracks
Разрядность: 24/96
Количество каналов: 2.0
Источник: HDTracks

Dynamic Range Meter

foobar2000 1.3.8 / Dynamic Range Meter 1.1.1
log date: 2015-06-19 15:24:42
--------------------------------------------------------------------------------
Analyzed: Joyce DiDonato, Il Complesso Barocco, Alan Curtis / Drama Queens
--------------------------------------------------------------------------------
DR Peak RMS Duration Track
--------------------------------------------------------------------------------
DR14 -0.86 dB -18.39 dB 6:05 01-Berenice : Da torbida procella
DR14 -0.81 dB -21.00 dB 7:39 02-Ifigenia in Aulide : Madre diletta
DR13 -0.98 dB -18.57 dB 4:10 03-Alcina : Ma quando tornerai
DR15 -1.39 dB -22.27 dB 5:14 04-Fredegunda : Lasciami piangere
DR13 -0.44 dB -16.52 dB 4:09 05-Antonio e Cleopatra : Morte, col fiero aspetto
DR14 -0.84 dB -20.52 dB 6:45 06-Giulio Cesare in Egitto : Piangero la sorte mia
DR15 -1.34 dB -22.04 dB 6:55 07-Orontea : Intorno all'idol mio
DR15 -0.03 dB -19.12 dB 5:56 08-Alessandro : Brilla nell'alma
DR15 -0.46 dB -20.46 dB 7:34 09-Octavia : Geloso, sospetto
DR15 -0.41 dB -21.52 dB 6:05 10-L'incoronazione di Poppea : Disprezzata regina
DR15 -0.17 dB -20.72 dB 8:48 11-Merope : Sposa, son disprezzata
DR14 -0.28 dB -17.50 dB 3:42 12-Berenice : Col versar, barbaro, il sangue
DR12 -0.54 dB -16.33 dB 4:16 13-Armida : Vedi, se t'amo... Odio, furor, dispetto
--------------------------------------------------------------------------------
Number of tracks: 13
Official DR value: DR14
Samplerate: 96000 Hz
Channels: 2
Bits per sample: 24
Bitrate: 2569 kbps
Codec: FLAC
================================================================================
[teatrix.ru].t21518.torrent 
Торрент: Зарегистрирован [ 2016-03-20 12:30 ] · A35762BDFAFB8ABA24ECAFC5747743F1E1BF1682

Скачать .torrent

Скачать

15 KB

Статус: проверено
Скачан: 0 раз
Размер: 1.34 GB
terms.php



Быстрый ответ

Имя:

      
Для отправки сообщений необходимо включить JavaScript
Показать сообщения:    

Текущее время: 03-Дек 07:42

Часовой пояс: UTC + 3


Вы можете начинать темы
Вы можете отвечать на сообщения
Вы не можете редактировать свои сообщения
Вы не можете удалять свои сообщения
Вы не можете голосовать в опросах
Вы не можете прикреплять файлы к сообщениям
Вы можете скачивать файлы